Запретное царство / The Forbidden Kingdom (2008) BDRip от GeneralFilm | D, A скачать торрент бесплатно на пк без регистрации






Продолжительность: 01:44:26
Год выпуска: 2008
Оригинальное название: The Forbidden Kingdom
Видео: XviD, 1833 Кбит/с, 720x304
Жанр: Фэнтези, боевик, приключения
В ролях: Джет Ли, Джеки Чан, Майкл Ангарано, Лю Ифэй, Колин Чоу, Хуана Коллиньон, Морган Бенуа, Ли Бинбин, Джек Пособец, Томас МакДонелл

Аудио 1: Русский, AC3, 6 ch, 384 Кбит/с | (дублированный)
Выпущено: США, Китай, Relativity Media, Casey Silver Productions, Huayi Brothers Media, China Film Co-Production Corporation
Режиссер: Роб Минкофф
Аудио 2: Русский, AC3, 6 ch, 384 Кбит/с | (Ю.Немахов)
Аудио 3: Украинский, AC3, 2 ch, 192 Кбит/с | (многоголосый)
О фильме: Американский подросток Джейсон, основательно помешанный на кунг-фу во всех его проявлениях, от самого спорта до фильмов про него, делает удивительное открытие: в одном из магазинчиков в китайском квартале он находит легендарный посох великого воина Царя Обезьян…

исходник (BD-Remux)
Название: Запретное царство
Аудио 4: Английский, AC3, 2 ch, 192 Кбит/с | (оригинал)
Качество: BDRipПеревод: Дублированный, авторский

MediaInfo
General
Complete name : G:The Forbidden Kingdom 2008 BDRip 2.18.avi
Format : AVI
Format/Info : Audio Video Interleave
Format profile : OpenDML
File size : 2.18 GiB
Duration : 1h 44mn
Overall bit rate : 2 992 Kbps
Writing application : VirtualDubModRus 1.5.10.2 (build 2542/release)
Writing library : VirtualDubMod build 2542/release

Video
ID : 0
Format : MPEG-4 Visual
Format profile : Advanced Simple@L5
Format settings, BVOP : 2
Format settings, QPel : No
Format settings, GMC : No warppoints
Format settings, Matrix : Default (H.263)
Muxing mode : Packed bitstream
Codec ID : XVID
Codec ID/Hint : XviD
Duration : 1h 44mn
Bit rate : 1 810 Kbps
Width : 720 pixels
Height : 304 pixels
Display aspect ratio : 2.35:1
Frame rate : 23.976 fps
Color space : YUV
Chroma subsampling : 4:2:0
Bit depth : 8 bits
Scan type : Progressive
Compression mode : Lossy
Bits/(Pixel*Frame) : 0.345
Stream size : 1.32 GiB (61%)
Writing library : XviD 57

Audio #1
ID : 1
Format : AC-3
Format/Info : Audio Coding 3
Mode extension : CM (complete main)
Format settings, Endianness : Big
Codec ID : 2000
Duration : 1h 44mn
Bit rate mode : Constant
Bit rate : 384 Kbps
Channel(s) : 6 channels
Channel positions : Front: L C R, Side: L R, LFE
Sampling rate : 48.0 KHz
Bit depth : 16 bits
Compression mode : Lossy
Stream size : 287 MiB (13%)
Alignment : Split accross interleaves
Interleave, duration : 42 ms (1.00 video frame)
Interleave, preload duration : 500 ms

Audio #2
ID : 2
Format : AC-3
Format/Info : Audio Coding 3
Mode extension : CM (complete main)
Format settings, Endianness : Big
Codec ID : 2000
Duration : 1h 44mn
Bit rate mode : Constant
Bit rate : 384 Kbps
Channel(s) : 6 channels
Channel positions : Front: L C R, Side: L R, LFE
Sampling rate : 48.0 KHz
Bit depth : 16 bits
Compression mode : Lossy
Stream size : 287 MiB (13%)
Alignment : Split accross interleaves
Interleave, duration : 42 ms (1.00 video frame)
Interleave, preload duration : 500 ms

Audio #3
ID : 3
Format : AC-3
Format/Info : Audio Coding 3
Mode extension : CM (complete main)
Format settings, Endianness : Big
Codec ID : 2000
Duration : 1h 44mn
Bit rate mode : Constant
Bit rate : 192 Kbps
Channel(s) : 2 channels
Channel positions : Front: L R
Sampling rate : 48.0 KHz
Bit depth : 16 bits
Compression mode : Lossy
Stream size : 143 MiB (6%)
Alignment : Split accross interleaves
Interleave, duration : 42 ms (1.00 video frame)
Interleave, preload duration : 500 ms

Audio #4
ID : 4
Format : AC-3
Format/Info : Audio Coding 3
Mode extension : CM (complete main)
Format settings, Endianness : Big
Codec ID : 2000
Duration : 1h 44mn
Bit rate mode : Constant
Bit rate : 192 Kbps
Channel(s) : 2 channels
Channel positions : Front: L R
Sampling rate : 48.0 KHz
Bit depth : 16 bits
Compression mode : Lossy
Stream size : 143 MiB (6%)
Alignment : Split accross interleaves
Interleave, duration : 42 ms (1.00 video frame)
Interleave, preload duration : 500 ms
Скриншоты


Релиз от: Залилkilih50a ОценкаНикто ещё не поставил оценку КатегорияЗарубежные фильмы Раздают2 Качают0 Сидер замечен12-06-2019 4:19:11 (58 минут назад) Добавлен14-10-2014 16:00:10 (57 месяцев назад) Размер2.18 GB (2343626752 Bytes)

Если у вас возникли проблемы с закачкой Запретное царство / The Forbidden Kingdom (2008) BDRip от GeneralFilm | D, A, перейдите по ссылке - там вы найдете решение своей проблемы.

Категория: Зарубежные фильмы

 

Запретное царство / The Forbidden Kingdom (2008) BDRip от GeneralFilm | D, A скачать торрент бесплатно на пк без регистрации

 

Информация
Посетители, находящиеся в группе Гости, не могут оставлять комментарии к данной публикации.
 
 
Запретное царство / The Forbidden Kingdom (2008) BDRip от GeneralFilm | D, A скачать торрент бесплатно на пк без регистрацииCopyright © 2019 .