Дрожь земли 3: Возвращение чудовищ / Tremors 3: Back to Perfection (2001) BDRip 1080p от Freeisland скачать торрент бесплатно на пк без регистрации




Продюсер: Нэнси Робертс, Энтони Санта Кроук, С.С. Уилсон
Аудио #3: AC3, 448 Kbps, 48.0 KHz, 6 ch (MVO - CTC)
Описание: Они спали целых двести лет. Но теперь они проснулись, и им очень хочется есть. И, надо заметить, голод у них за два века развился нешуточный! Подземные твари вылезают на поверхность и отправляются в путешествие по просторам Невады в поисках своего завтрака.На пути прожорливых монстров оказывается знакомый нам городок под скромным названием «Совершенство». Но здесь уже готовы к «приему» ползучих людоедов! Признанный специалист по выживанию и профессиональный истребитель страшных хищников, Берт Гаммер, успел обзавестись огромным арсеналом всевозможного стрелкового оружия, различной взрывчатки и готов к бою на все сто.Правда он еще не знает, что подземные черви тоже подготовились к встрече с городом: они научились превращаться в чрезвычайно опасных летающих особей…

Премьера (мир): 2 октября 2001, ...
Аудио #4: AC3, 448 Kbps, 48.0 KHz, 6 ch (AVO - С. Визгунов)
В ролях: Майкл Гросс / Michael Gross (Burt Gummer), Шон Кристиан / Shawn Christian (Desert Jack Sawyer), Сьюзэн Чуэнг / Susan Chuang (Jodi Chang), Шарлотта Стюарт / Charlotte Stewart (Nancy Sterngood), Ариана Ричардс / Ariana Richards (Mindy Sterngood), Тони Дженаро / Tony Genaro (Miguel), Бэрри Ливингстон / Barry Livingston (Dr. Andrew Merliss), Джон Паппас / John Pappas (Agent Charlie Rusk), Роберт Джейн / Robert Jayne (Melvin Plug), Билли Рик / Billy Rieck (Buford, Jack's Assistant)

Релиз группы: ЗалилХудожник: Кен Ларсон, Альберто Гонзалез-Рейна, Дэбби Шайн, ...
Формат: MKV
Перевод: Профессиональный (многоголосый закадровый)
Видео: 1920x1040 (16:9), 23.976 fps, AVC, 10.4 Mbps

Субтитры: Russian (UTF-8), English (UTF-8)

Композитор: Кевин Кайнер
Монтаж: Дрэйк Силлимэн

_Skylark_ Оценка10 из 10 (5 голосов, самая низкая оценка - 10, самая высокая - 10) КатегорияЗарубежные фильмы Раздают1 Качают0 Сидер замечен11-06-2019 22:19:12 (8 часов назад) Добавлен22-08-2013 12:39:16 (71 месяц назад) Размер8.97 GB (9626863439 Bytes)Tremors 3: Back to Perfection
«The Food Chain Just Grew Another Link.»


Год выпуска: 2001
Жанр: ужасы, фантастика, боевик, триллер, комедия
Качество: BDRip 1080р
Аудио #5: AC3, 448 Kbps, 48.0 KHz, 6 ch (English)



МедиаИнфоGeneral
Complete name : Drozhj.zemli.3.2001.BDRip.1080p.mkv
Format : Matroska
File size : 8.97 GiB
Duration : 1h 43mn
Overall bit rate : 12.4 Mbps
Encoded date : UTC 2013-08-21 20:35:00
Writing application : mkvmerge v6.1.0 ('Old Devil') built on Mar 2 2013 14:32:37
Writing library : libebml v1.3.0 + libmatroska v1.4.0

Video
ID : 1
Format : AVC
Format/Info : Advanced Video Codec
Format profile : High@L4.1
Format settings, CABAC : Yes
Format settings, ReFrames : 4 frames
Muxing mode : Container profile=Unknown@4.1
Codec ID : V_MPEG4/ISO/AVC
Duration : 1h 43mn
Bit rate : 10.4 Mbps
Width : 1 920 pixels
Height : 1 040 pixels
Display aspect ratio : 16:9
Frame rate : 23.976 fps
Color space : YUV
Chroma subsampling : 4:2:0
Bit depth : 8 bits
Scan type : Progressive
Bits/(Pixel*Frame) : 0.216
Stream size : 7.31 GiB (81%)
Writing library : x264 core 135 r2345 f0c1c53
Encoding settings : cabac=1 / ref=4 / deblock=1:-1:-1 / analyse=0x3:0x133 / me=umh / subme=10 / psy=1 / psy_rd=1.00:0.00 / mixed_ref=1 / me_range=32 / chroma_me=1 / trellis=2 / 8x8dct=1 / cqm=0 / deadzone=21,11 / fast_pskip=0 / chroma_qp_offset=-2 / threads=6 / lookahead_threads=1 / sliced_threads=0 / nr=0 / decimate=1 / interlaced=0 / bluray_compat=0 / constrained_intra=0 / bframes=10 / b_pyramid=2 / b_adapt=2 / b_bias=0 / direct=3 / weightb=1 / open_gop=0 / weightp=2 / keyint=240 / keyint_min=24 / scenecut=40 / intra_refresh=0 / rc_lookahead=50 / rc=2pass / mbtree=0 / bitrate=10357 / ratetol=2.0 / qcomp=1.00 / qpmin=0 / qpmax=51 / qpstep=4 / cplxblur=20.0 / qblur=0.5 / vbv_maxrate=50000 / vbv_bufsize=62500 / nal_hrd=none / ip_ratio=1.40 / pb_ratio=1.30 / aq=1:1.00
Color primaries : BT.709-5, BT.1361, IEC 61966-2-4, SMPTE RP177
Transfer characteristics : BT.709-5, BT.1361
Matrix coefficients : BT.709-5, BT.1361, IEC 61966-2-4 709, SMPTE RP177

Audio #1
ID : 2
Format : AC-3
Format/Info : Audio Coding 3
Mode extension : CM (complete main)
Codec ID : A_AC3
Duration : 1h 43mn
Bit rate mode : Constant
Bit rate : 256 Kbps
Channel(s) : 2 channels
Channel positions : Front: L R
Sampling rate : 48.0 KHz
Bit depth : 16 bits
Stream size : 190 MiB (2%)
Title : MVO - Blu-ray
Language : Russian

Audio #2
ID : 3
Format : AC-3
Format/Info : Audio Coding 3
Mode extension : CM (complete main)
Codec ID : A_AC3
Duration : 1h 43mn
Bit rate mode : Constant
Bit rate : 448 Kbps
Channel(s) : 6 channels
Channel positions : Front: L C R, Side: L R, LFE
Sampling rate : 48.0 KHz
Bit depth : 16 bits
Stream size : 332 MiB (4%)
Title : MVO
Language : Russian

Audio #3
ID : 4
Format : AC-3
Format/Info : Audio Coding 3
Mode extension : CM (complete main)
Codec ID : A_AC3
Duration : 1h 43mn
Bit rate mode : Constant
Bit rate : 448 Kbps
Channel(s) : 6 channels
Channel positions : Front: L C R, Side: L R, LFE
Sampling rate : 48.0 KHz
Bit depth : 16 bits
Stream size : 332 MiB (4%)
Title : MVO - CTC
Language : Russian

Audio #4
ID : 5
Format : AC-3
Format/Info : Audio Coding 3
Mode extension : CM (complete main)
Codec ID : A_AC3
Duration : 1h 43mn
Bit rate mode : Constant
Bit rate : 448 Kbps
Channel(s) : 6 channels
Channel positions : Front: L C R, Side: L R, LFE
Sampling rate : 48.0 KHz
Bit depth : 16 bits
Stream size : 332 MiB (4%)
Title : AVO - С. Визгунов
Language : Russian

Audio #5
ID : 6
Format : AC-3
Format/Info : Audio Coding 3
Mode extension : CM (complete main)
Codec ID : A_AC3
Duration : 1h 43mn
Bit rate mode : Constant
Bit rate : 448 Kbps
Channel(s) : 6 channels
Channel positions : Front: L C R, Side: L R, LFE
Sampling rate : 48.0 KHz
Bit depth : 16 bits
Stream size : 332 MiB (4%)

Text #1
ID : 7
Format : UTF-8
Codec ID : S_TEXT/UTF8
Codec ID/Info : UTF-8 Plain Text
Language : Russian

Text #2
ID : 8
Format : UTF-8
Codec ID : S_TEXT/UTF8
Codec ID/Info : UTF-8 Plain Text

Menu
00:00:00.000 : en:00:00:00.000
00:05:46.388 : en:00:05:46.388
00:09:37.410 : en:00:09:37.410
00:21:05.014 : en:00:21:05.014
00:26:47.231 : en:00:26:47.231
00:29:31.353 : en:00:29:31.353
00:33:31.551 : en:00:33:31.551
00:38:58.628 : en:00:38:58.628
00:45:45.868 : en:00:45:45.868
00:49:36.098 : en:00:49:36.098
00:53:54.648 : en:00:53:54.648
01:00:18.365 : en:01:00:18.365
01:08:55.673 : en:01:08:55.673
01:17:39.029 : en:01:17:39.029
01:23:12.112 : en:01:23:12.112
01:30:19.998 : en:01:30:19.998
01:34:25.451 : en:01:34:25.451
01:39:29.589 : en:01:39:29.589

Скриншоты



Видео кодек: AVC
Аудио #2: AC3, 448 Kbps, 48.0 KHz, 6 ch (MVO)
Страна: США
Сценарий: С.С. Уилсон, Брент Мэддок, Нэнси Робертс, ...
Оператор: Вирджил Л. Харпер
Аудио кодеk: AC3
Режиссер: Брент Мэддок
Дрожь земли 3: Возвращение чудовищ
Продолжительность: 01:43:36
Аудио #1: AC3, 256 Kbps, 48.0 KHz, 2 ch (MVO - Blu-ray)
Рейтинг MPAA: Рекомендуется присутствие родителей



Если у вас возникли проблемы с закачкой Дрожь земли 3: Возвращение чудовищ / Tremors 3: Back to Perfection (2001) BDRip 1080p от Freeisland, перейдите по ссылке - там вы найдете решение своей проблемы.

Категория: Зарубежные фильмы

 

Дрожь земли 3: Возвращение чудовищ / Tremors 3: Back to Perfection (2001) BDRip 1080p от Freeisland скачать торрент бесплатно на пк без регистрации

 

Информация
Посетители, находящиеся в группе Гости, не могут оставлять комментарии к данной публикации.
 
 
Дрожь земли 3: Возвращение чудовищ / Tremors 3: Back to Perfection (2001) BDRip 1080p от Freeisland скачать торрент бесплатно на пк без регистрацииCopyright © 2019 .