Не забирай меня домой / Don't Take Me Home (2017) BDRip 720p | L2 скачать торрент бесплатно на пк без регистрации






Информация о фильме
В главных ролях: Гарет Бэйл, Крис Коулман, Аарон Рэмси, Гэри Скотт, Эшли Уильямс

Режиссер постановщик: Джонни Оуэн
Категория: документальный, история, спорт
Перевод: Любительский двухголосый (GreenРай Studio)
Продолжительность: 01:22:50

Аудио данные: Русский (AC3, 2 ch, 640 Кбит/с)
Оригинальное наименование: Don't Take Me Home
О фильме:
История о том, как спустя почти 60 лет попыток, Уэльская команда смогла достичь тех высот, о которых их болельщики даже не догадывались.



Качество: BDRip 720p
Над релизом работали:
Перевод - Анна Сташкова
Озвучил - Ильдор Ахмеджанов, Татьяна Трусевич
Звукорежиссер и Координатор - Евгений Овчаренко
Арт менеджер студии - Никита Марков

MediainfoGeneral
Unique ID : 231371418962224475679008222552266720817 (0xAE1083B013B40B66932C5F3A601D4631)
Complete name : D:Рабочий столDont.Take.Me.Home.2017.P.BDRip.720p.mkv
Format : Matroska
Format version : Version 4 / Version 2
File size : 2.58 GiB
Duration : 1 h 22 min
Overall bit rate mode : Constant
Overall bit rate : 4 476 kb/s
Movie name : Dynasty S01E02 Spit it Out
Encoded date : UTC 2017-10-27 12:06:07
Writing application : mkvmerge v8.3.0 ('Over the Horizon') 64bit
Writing library : libebml v1.3.1 + libmatroska v1.4.2

Video
ID : 1
Format : AVC
Format/Info : Advanced Video Codec
Format profile : Main@L3.2
Format settings, CABAC : Yes
Format settings, ReFrames : 3 frames
Format settings, GOP : M=4, N=15
Codec ID : V_MPEG4/ISO/AVC
Duration : 1 h 22 min
Bit rate mode : Constant
Bit rate : 4 000 kb/s
Width : 1 280 pixels
Height : 720 pixels
Display aspect ratio : 16:9
Frame rate mode : Constant
Frame rate : 25.000 FPS
Standard : NTSC
Color space : YUV
Chroma subsampling : 4:2:0
Bit depth : 8 bits
Scan type : Progressive
Bits/(Pixel*Frame) : 0.174
Stream size : 2.21 GiB (86%)
Language : English
Default : Yes
Forced : No
Color range : Limited

Audio
ID : 2
Format : AC-3
Format/Info : Audio Coding 3
Mode extension : CM (complete main)
Format settings, Endianness : Big
Codec ID : A_AC3
Duration : 1 h 22 min
Bit rate mode : Constant
Bit rate : 640 kb/s
Channel(s) : 2 channels
Channel positions : Front: L R
Sampling rate : 48.0 kHz
Frame rate : 31.250 FPS (1536 spf)
Compression mode : Lossy
Stream size : 378 MiB (14%)
Default : Yes
Forced : No

Наименование: Не забирай меня домой
Видео данные: MKV, 1280x720 (16:9), 25.000 fps, 4000 Кбит/с
Произведено: Великобритания
Релиз от: Оценка10 из 10 (1 голосов, самая низкая оценка - 10, самая высокая - 10) КатегорияЗарубежные фильмы Раздают0 Качают0 Сидер замечен30-05-2019 23:19:12 (12 дня назад) Добавлен28-10-2017 21:54:41 (20 месяцев назад) Размер2.58 GB (2772088626 Bytes)ВНИМАНИЕ! Присутствует реклама!

Скриншоты

Если у вас возникли проблемы с закачкой Не забирай меня домой / Don't Take Me Home (2017) BDRip 720p | L2, перейдите по ссылке - там вы найдете решение своей проблемы.

Категория: Зарубежные фильмы

 

Не забирай меня домой / Don't Take Me Home (2017) BDRip 720p | L2 скачать торрент бесплатно на пк без регистрации

 

Информация
Посетители, находящиеся в группе Гости, не могут оставлять комментарии к данной публикации.
 
 
Не забирай меня домой / Don't Take Me Home (2017) BDRip 720p | L2 скачать торрент бесплатно на пк без регистрацииCopyright © 2019 .