Растеряева улица (1959) SATRip от New-Team скачать торрент бесплатно на пк без регистрации





Перевод:Оригинальная аудиодорожка: русский

Мы "В КОНТАКТЕ"

Производство: Государственный академический Малый театр СССР

Cубтитры: нет
В ролях:
Абрам Незнамов, Степан Каюков, Софья Фадеева, Николай Рыжов, Вера Пашенная, Евдокия Турчанинова, Ольга Хорькова, Елена Хромова, Александр Дегтярь, Борис Телегин, Варвара Обухова, Александр Сашин-Никольский, Тимофей Ванюков, Сергей Чернышев, Александр Грузинский, Пётр Старковский, Сергей Конов, Леонид Титов, Наталья Цветкова, Александр Пронин, Валентина Орлова, Владимир Сверчков, Виталий Игаров, Аркадий Смирнов, Валентина Тёмкина, Елена Рубцова, Дмитрий Павлов, Михаил Садовский (младший), Владимир Головин, Владимир Котельников...
Аудио: 48 kHz, Dolby Digital AC3 2.0, 192 kbps

Формат видео: AVI

Жанр: комедия, экранизация, фильм-спектакль
Описание:
Фильм-спектакль по одноименной комедии М. Нарокова, написанной по мотивам цикла очерков Г. Успенского «Нравы Растеряевой улицы». Постановка Малого театра.
Липа и Вера были подругами с детства. И вот теперь, когда они окончили пансион, перед каждой открылась своя дорога в жизни. Измученная бедностью, Липа поневоле выходит замуж за старого, тупого и злобного Толоконникова.



Раздача от:
MediaInfo
Общее
Полное имя : Rasteryaeva.ulica.1959.SATRip_[New-team]_by_AVP_StudioСерия 01.avi
Формат : AVI
Формат/Информация : Audio Video Interleave
Размер файла : 1,08 Гбайт
Продолжительность : 1 ч. 19 м.
Общий поток : 1938 Кбит/сек
Программа кодирования : VirtualDubMod 1.5.10.3 | www.virtualdub-fr.org || (build 2550/release)
Библиотека кодирования : VirtualDubMod build 2550/release

Видео
Идентификатор : 0
Формат : MPEG-4 Visual
Профиль формата : Advanced Simple@L5
Настройки формата : BVOP1 / Custom Matrix
Параметр BVOP формата : 1
Параметр QPel формата : Нет
Параметр GMC формата : Без точки перехода
Параметр матрицы формата : Выборочная
Идентификатор кодека : XVID
Идентификатор кодека/Подсказка : XviD
Продолжительность : 1 ч. 19 м.
Битрейт : 1737 Кбит/сек
Ширина : 704 пикселя
Высота : 528 пикселей
Соотношение сторон : 4:3
Частота кадров : 25,000 кадров/сек
Цветовое пространство : YUV
Субдискретизация насыщенности : 4:2:0
Битовая глубина : 8 бит
Тип развёртки : Прогрессивная
Метод сжатия : С потерями
Бит/(Пиксели*Кадры) : 0.187
Размер потока : 992 Мбайт (90%)
Библиотека кодирования : XviD 73

Аудио
Идентификатор : 1
Формат : AC-3
Формат/Информация : Audio Coding 3
Идентификатор кодека : 2000
Продолжительность : 1 ч. 19 м.
Вид битрейта : Постоянный
Битрейт : 192 Кбит/сек
Каналы : 2 канала
Расположение каналов : Front: L R
Частота : 48,0 КГц
Частота кадров : 31,250 кадров/сек (1536 SPF)
Битовая глубина : 16 бит
Метод сжатия : С потерями
Размер потока : 110 Мбайт (10%)
Выравнивание : Разделение по промежуткам
Продолжительность промежутка : 40 мс. (1,00 видеокадр)
Время предзагрузки промежутка : 500 мс

Скриншоты

ЗалилОб актёрах подробней

Качество видео:DVB
Видео: 704х528 (4:3), 25 fps, XviD ~ 1737 kbps avg, 0.187 bit/pixel
AVPStudio ОценкаНикто ещё не поставил оценку КатегорияНаши фильмы Раздают0 Качают0 Сидер замечен11-06-2019 16:19:12 (16 часов назад) Добавлен16-12-2017 11:19:54 (18 месяцев назад) Размер2.18 GB (2340208640 Bytes)Страна: СССР
Продолжительность: 02:40:58 (01:19:50 + 01:21:08)

Режиссер: Виктор Рыжков

SATRip
Не требуется
Исходник:Год выпуска: 1959

Если у вас возникли проблемы с закачкой Растеряева улица (1959) SATRip от New-Team, перейдите по ссылке - там вы найдете решение своей проблемы.

Категория: Наши фильмы

 

Растеряева улица (1959) SATRip от New-Team скачать торрент бесплатно на пк без регистрации

 

Информация
Посетители, находящиеся в группе Гости, не могут оставлять комментарии к данной публикации.
 
 
Растеряева улица (1959) SATRip от New-Team скачать торрент бесплатно на пк без регистрацииCopyright © 2019 .