От имени моей дочери / Kalinka / Au nom de ma fille (2016) HDRip от Portablius | P скачать торрент бесплатно на пк без регистрации






Информация о фильме
Кодек: XviD
Видео: 720x304 (2.37:1), 24.000 fps, XviD build 73 ~1057 kbps avg, 0.20 bit/pixel
Страна: Франция, Германия
О фильме: Андрэ Бамберски стремится выяснить истинные причины гибели своей маленькой дочери Калинки. Расследование, длившееся 27 лет, выходит на след предполагаемого насильника и убийцы, и отец наконец получает возможность способствовать свершению правосудия.



Звук: 48 kHz, MPEG Layer 3, 2 ch, ~128.00 kbps avg

MediaInfoGeneral
Complete name : Au.nom.de.ma.fille.2016.HDRip.ot.Portablius.avi
Format : AVI
Format/Info : Audio Video Interleave
File size : 738 MiB
Duration : 1 h 26 min
Overall bit rate : 1 195 kb/s
Writing application : VirtualDubMod 1.5.10.3 | www.virtualdub-fr.org || (build 2550/release)
Writing library : VirtualDubMod build 2550/release

Video
ID : 0
Format : MPEG-4 Visual
Format profile : Advanced Simple@L5
Format settings, BVOP : 1
Format settings, QPel : No
Format settings, GMC : No warppoints
Format settings, Matrix : Custom
Codec ID : XVID
Codec ID/Hint : XviD
Duration : 1 h 26 min
Bit rate : 1 058 kb/s
Width : 720 pixels
Height : 304 pixels
Display aspect ratio : 2.35:1
Frame rate : 24.000 FPS
Color space : YUV
Chroma subsampling : 4:2:0
Bit depth : 8 bits
Scan type : Progressive
Compression mode : Lossy
Bits/(Pixel*Frame) : 0.201
Stream size : 653 MiB (89%)
Writing library : XviD 73

Audio
ID : 1
Format : MPEG Audio
Format version : Version 1
Format profile : Layer 3
Codec ID : 55
Codec ID/Hint : MP3
Duration : 1 h 26 min
Bit rate mode : Constant
Bit rate : 128 kb/s
Channel(s) : 2 channels
Sampling rate : 48.0 kHz
Compression mode : Lossy
Stream size : 79.1 MiB (11%)
Alignment : Aligned on interleaves
Interleave, duration : 42 ms (1.00 video frame)
Interleave, preload duratio : 504 ms
Writing library : LAME3.99r
Encoding settings : -m s -V 4 -q 2 -lowpass 17 -b 128

Скриншоты ЗалилEvgen Portable ОценкаНикто ещё не поставил оценку КатегорияЗарубежные фильмы Раздают0 Качают0 Сидер замечен10-06-2019 22:19:12 (1 день назад) Добавлен17-09-2018 11:41:25 (9 месяцев назад) Размер738.28 MB (774139904 Bytes)Перевод: Профессиональный (многоголосый, закадровый) кинокомпания Эй Би Видео по заказу Первого канала
Оригинальное название: Kalinka / Au nom de ma fille
Название: От имени моей дочери
Качество: HDRip
Студия: LGM Productions, Black Mask Productions, StudioCanal, TF1 Films Production
В ролях: Даниель Отой, Себастьян Кох, Мари-Жозе Кроз, Кристель Корнил, Лила-Роуз Джилберти, Emma Besson, Кристиан Кмиотек (Robert), Серж Феллар (Maître Gibault), Фред Персонн, Тереза Руссель (La mère d'André), Tom Hudson (Pierre (20 ans)), Антуан Милход

Субтитры: Нет

Режиссер: Венсан Гаренк
Год выхода: 2016
Продолжительность: 01:26:22
Жанр: драма, биография

Если у вас возникли проблемы с закачкой От имени моей дочери / Kalinka / Au nom de ma fille (2016) HDRip от Portablius | P, перейдите по ссылке - там вы найдете решение своей проблемы.

Категория: Зарубежные фильмы

 

От имени моей дочери / Kalinka / Au nom de ma fille (2016) HDRip от Portablius | P скачать торрент бесплатно на пк без регистрации

 

Информация
Посетители, находящиеся в группе Гости, не могут оставлять комментарии к данной публикации.
 
 
От имени моей дочери / Kalinka / Au nom de ma fille (2016) HDRip от Portablius | P скачать торрент бесплатно на пк без регистрацииCopyright © 2019 .