Проклятие Чаки / Curse of Chucky (2013) BDRip-AVC от New-Team | D | Лицензия скачать торрент бесплатно на пк без регистрации




Качество видео:Автор рипа:Режиссер:
Дон Манчини / Don Mancini

Видео: 2342 Кбит/сек, 1088*612 (16:9), в 23,976 кадр/сек, AVC
Curse of Chucky

«Be afraid. Be effing afraid»





Сэмпл:Аудио #1: Russian, 448 Кбит/сек, 48,0 КГц, 16 бит, 6 канала(ов), AC-3
Профессиональный (полное дублирование) [Лицензия]
Аудио кодек: AC3
Оригинальная аудиодорожка: Английский

Описание:
В центре событий окажется молодая женщина по имени Ника тяжело переживающая самоубийство матери. Ее старшая сестра Барбара — властная, волевая женщина, — приезжает вместе с семьей к Нике, чтобы поддержать ее и уладить дела матери. Пока сестры заняты делом, малолетняя дочь Барбары находит в доме посылку пришедшую от неизвестного адресата, а в ней рыжеволосую куклу Чаки. Вскоре происходит череда кровавых убийств. Ника начинает подозревать, что в убийствах неким образом замешана кукла. По ходу дела выясняется, что у Чаки во всем этом есть особый интерес. Он решил закончить работу которую начал 20 лет назад, и в этот раз он намерен довести дело до кровавого и шокирующего финала.




Продолжительность: 01:36:41

Cубтитры: Русские, английские
Проклятие Чаки
Аудио #2: English, 448 Кбит/сек, 48,0 КГц, 16 бит, 6 канала(ов), AC-3


MediaInfo
Общее
Уникальный идентификатор : 225199494457031957260185411502754460395 (0xA96BD850D7CFDADB80624B4CEBA372EB)
Полное имя : H:Проклятие чакиProkljatie_Chaki_2013_BDRip_AVC_Dub_2.18__stalkerok_new-team.mkv
Формат : Matroska
Размер файла : 2,19 Гбайт
Продолжительность : 1 ч. 36 м.
Общий поток : 3241 Кбит/сек
Название фильма : Curse of Chucky 2013 (New-Team) (Rip by Stalker oK)
Дата кодирования : UTC 2014-01-05 16:14:47
Программа кодирования : mkvmerge v6.2.0 ('Promised Land') built on Apr 28 2013 12:22:01
Библиотека кодирования : libebml v1.3.0 + libmatroska v1.4.0

Видео
Идентификатор : 1
Формат : AVC
Формат/Информация : Advanced Video Codec
Профиль формата : High@L4.1
Параметр CABAC формата : Да
Параметр ReFrames формата : 11 кадры
Идентификатор кодека : V_MPEG4/ISO/AVC
Продолжительность : 1 ч. 36 м.
Битрейт : 2342 Кбит/сек
Ширина : 1088 пикс.
Высота : 612 пикс.
Соотношение сторон : 16:9
Частота кадров : 23,976 кадр/сек
Цветовое пространство : YUV
Подвыборка цветности : 4:2:0
Битовая глубина : 8 бит
Тип развёртки : Прогрессивная
Бит/(Пиксели*Кадры) : 0.147
Размер потока : 1,54 Гбайт (70%)
Библиотека кодирования : x264 core 138 r2358 9e941d1
Настройки программы : cabac=1 / ref=11 / deblock=1:-2:-2 / analyse=0x3:0x133 / me=umh / subme=10 / psy=1 / psy_rd=1.03:0.10 / mixed_ref=1 / me_range=48 / chroma_me=1 / trellis=2 / 8x8dct=1 / cqm=0 / deadzone=21,11 / fast_pskip=0 / chroma_qp_offset=-3 / threads=6 / lookahead_threads=1 / sliced_threads=0 / nr=0 / decimate=0 / interlaced=0 / bluray_compat=0 / constrained_intra=0 / bframes=11 / b_pyramid=2 / b_adapt=2 / b_bias=0 / direct=3 / weightb=1 / open_gop=0 / weightp=2 / keyint=240 / keyint_min=23 / scenecut=40 / intra_refresh=0 / rc_lookahead=80 / rc=2pass / mbtree=0 / bitrate=2342 / ratetol=1.0 / qcomp=0.65 / qpmin=0 / qpmax=69 / qpstep=4 / cplxblur=20.0 / qblur=0.5 / vbv_maxrate=30000 / vbv_bufsize=40000 / nal_hrd=none / ip_ratio=1.40 / pb_ratio=1.30 / aq=2:0.80
Язык : English

Аудио #1
Идентификатор : 2
Формат : AC-3
Формат/Информация : Audio Coding 3
Расширение режима : CM (complete main)
Идентификатор кодека : A_AC3
Продолжительность : 1 ч. 36 м.
Вид битрейта : Постоянный
Битрейт : 448 Кбит/сек
Канал(ы) : 6 канала(ов)
Расположение каналов : Front: L C R, Side: L R, LFE
Частота : 48,0 КГц
Битовая глубина : 16 бит
Метод сжатия : С потерями
Размер потока : 310 Мбайт (14%)
Заголовок : AC3 5.1 @ 448 kbps - Dub
Язык : Russian

Аудио #2
Идентификатор : 3
Формат : AC-3
Формат/Информация : Audio Coding 3
Расширение режима : CM (complete main)
Идентификатор кодека : A_AC3
Продолжительность : 1 ч. 36 м.
Вид битрейта : Постоянный
Битрейт : 448 Кбит/сек
Канал(ы) : 6 канала(ов)
Расположение каналов : Front: L C R, Side: L R, LFE
Частота : 48,0 КГц
Битовая глубина : 16 бит
Метод сжатия : С потерями
Размер потока : 310 Мбайт (14%)
Заголовок : AC3 5.1 @ 448 kbps
Язык : English

Текст #1
Идентификатор : 4
Формат : UTF-8
Идентификатор кодека : S_TEXT/UTF8
Идентификатор кодека/Информация : UTF-8 Plain Text
Язык : Russian

Текст #2
Идентификатор : 5
Формат : UTF-8
Идентификатор кодека : S_TEXT/UTF8
Идентификатор кодека/Информация : UTF-8 Plain Text
Язык : English

Меню
00:00:00.000 : en:00:00:00.000
00:04:45.410 : en:00:04:45.410
00:08:48.486 : en:00:08:48.486
00:15:30.680 : en:00:15:30.680
00:20:24.306 : en:00:20:24.306
00:27:34.653 : en:00:27:34.653
00:32:42.502 : en:00:32:42.502
00:37:47.140 : en:00:37:47.140
00:43:51.671 : en:00:43:51.671
00:46:54.186 : en:00:46:54.186
00:51:29.336 : en:00:51:29.336
00:56:46.903 : en:00:56:46.903
01:01:29.686 : en:01:01:29.686
01:05:34.347 : en:01:05:34.347
01:09:09.270 : en:01:09:09.270
01:13:41.250 : en:01:13:41.250
01:20:23.235 : en:01:20:23.235
01:24:53.505 : en:01:24:53.505
01:28:31.765 : en:01:28:31.765
01:31:47.460 : en:01:31:47.460





ЗалилStalker oK

Страна: США
S.T.A.L.K.E.R.2 Оценка8 из 10 (1 голосов, самая низкая оценка - 8, самая высокая - 8) КатегорияЗарубежные фильмы Раздают3 Качают0 Сидер замечен12-06-2019 10:19:12 (18 минут назад) Добавлен06-01-2014 14:05:24 (66 месяцев назад) Размер2.19 GB (2350026219 Bytes)multi-up

Жанр: ужасы, триллер
Релиз: |

Студия: Universal Home Entertainment, Universal Pictures
Год выпуска: 2013
BDRip-AVC [исходник BD-Remux]
Формат видео: MKV
В ролях:
Брэд Дуриф, Даниэль Бисутти, Эй Мартинез, Фиона Дуриф, Бреннан Эллиотт, Алекс Винсент, Шэнтал Куэснел, Мейтленд МакКоннелл, Али Татарин, Кэлли Берард и др.

Перевод:Видео кодек: AVC

Если у вас возникли проблемы с закачкой Проклятие Чаки / Curse of Chucky (2013) BDRip-AVC от New-Team | D | Лицензия, перейдите по ссылке - там вы найдете решение своей проблемы.

Категория: Зарубежные фильмы

 

Проклятие Чаки / Curse of Chucky (2013) BDRip-AVC от New-Team | D | Лицензия скачать торрент бесплатно на пк без регистрации

 

Информация
Посетители, находящиеся в группе Гости, не могут оставлять комментарии к данной публикации.
 
 
Проклятие Чаки / Curse of Chucky (2013) BDRip-AVC от New-Team | D | Лицензия скачать торрент бесплатно на пк без регистрацииCopyright © 2019 .