Холодное сердце / Frozen (2013) BDRip-HEVC 1080p от Kino-mix | Локализованная версия | Лицензия скачать торрент бесплатно на пк без регистрации






_CAHEK_72 ОценкаНикто ещё не поставил оценку КатегорияМультипликация Раздают21 Качают2 Сидер замечен12-06-2019 6:19:12 (47 минут назад) Добавлен05-01-2019 12:48:19 (5 месяцев назад) Размер3.95 GB (4239012496 Bytes)Субтитры: Русские (форсированные, полные), английские


Видео: HEVC/H.265, 1920x856, ~4244 Kbps
Жанр: Мультфильм, мюзикл, фэнтези, комедия, мелодрама, приключения, семейный
Аудио 2: AC3, 6 ch, 640 Kbps - Английский
Продолжительность: 01:42:13
Режиссер: Крис Бак, Дженнифер Ли

Mr. Fox

Mediainfo Общее
Уникальный идентификатор : 252835485384569584958548926387791938393 (0xBE3657DDF59E58624AA767048E654359)
Полное имя : F:РАЗДАЧИFrozen. 2013. 1080p. HEVC. 10 bit.mkv
Формат : Matroska
Версия формата : Version 4 / Version 2
Размер файла : 3,95 Гбайт
Продолжительность : 1 ч. 42 м.
Общий поток : 5529 Кбит/сек
Название фильма : Рип от Mr. Fox, специально для сайта Kino-mix
Дата кодирования : UTC 2019-01-04 05:09:06
Программа кодирования : mkvmerge v28.2.0 ('The Awakening') 64-bit
Библиотека кодирования : libebml v1.3.6 + libmatroska v1.4.9
Обложка : Yes
Attachments : cover.jpg

Видео
Идентификатор : 1
Формат : HEVC
Формат/Информация : High Efficiency Video Coding
Профиль формата : Main 10@L4.1@High
Идентификатор кодека : V_MPEGH/ISO/HEVC
Продолжительность : 1 ч. 42 м.
Битрейт : 4244 Кбит/сек
Ширина : 1920 пикселей
Высота : 856 пикселей
Соотношение сторон : 2,25:1
Режим частоты кадров : Постоянный
Частота кадров : 23,976 (24000/1001) кадра/сек
Цветовое пространство : YUV
Субдискретизация насыщенности : 4:2:0
Битовая глубина : 10 бит
Бит/(Пиксели*Кадры) : 0.108
Размер потока : 3,03 Гбайт (77%)
Заголовок : Рип от Mr. Fox, специально для сайта Kino-mix
Библиотека кодирования : x265 2.9+9-f74003e88622:[Windows][GCC 7.3.0][64 bit] 10bit
Настройки программы : cpuid=1111039 / frame-threads=13 / numa-pools=12 / wpp / no-pmode / no-pme / no-psnr / no-ssim / log-level=3 / input-csp=1 / input-res=1920x856 / interlace=0 / total-frames=0 / level-idc=41 / high-tier=1 / uhd-bd=0 / ref=5 / allow-non-conformance / no-repeat-headers / annexb / no-aud / no-hrd / info / hash=0 / no-temporal-layers / open-gop / min-keyint=24 / keyint=240 / gop-lookahead=0 / bframes=8 / b-adapt=2 / b-pyramid / bframe-bias=0 / rc-lookahead=60 / lookahead-slices=4 / scenecut=40 / radl=0 / no-intra-refresh / ctu=32 / min-cu-size=8 / rect / amp / max-tu-size=32 / tu-inter-depth=4 / tu-intra-depth=4 / limit-tu=1 / rdoq-level=2 / dynamic-rd=0.00 / no-ssim-rd / signhide / no-tskip / nr-intra=0 / nr-inter=0 / no-constrained-intra / no-strong-intra-smoothing / max-merge=4 / limit-refs=2 / limit-modes / me=3 / subme=7 / merange=57 / temporal-mvp / weightp / weightb / no-analyze-src-pics / deblock=-3:-3 / no-sao / no-sao-non-deblock / rd=6 / no-early-skip / no-rskip / no-fast-intra / no-tskip-fast / no-cu-lossless / no-b-intra / no-splitrd-skip / rdpenalty=0 / psy-rd=2.00 / psy-rdoq=1.00 / no-rd-refine / no-lossless / cbqpoffs=0 / crqpoffs=0 / rc=crf / crf=19.5 / qcomp=0.60 / qpstep=1 / stats-write=0 / stats-read=0 / vbv-maxrate=50000 / vbv-bufsize=50000 / vbv-init=0.9 / crf-max=30.0 / crf-min=0.0 / ipratio=1.40 / pbratio=1.30 / aq-mode=1 / aq-strength=0.90 / no-cutree / zone-count=0 / no-strict-cbr / qg-size=32 / no-rc-grain / qpmax=69 / qpmin=0 / no-const-vbv / sar=1 / overscan=0 / videoformat=5 / range=0 / colorprim=2 / transfer=2 / colormatrix=2 / chromaloc=0 / display-window=0 / max-cll=0,0 / min-luma=0 / max-luma=1023 / log2-max-poc-lsb=8 / vui-timing-info / vui-hrd-info / slices=1 / no-opt-qp-pps / no-opt-ref-list-length-pps / no-multi-pass-opt-rps / scenecut-bias=0.05 / no-opt-cu-delta-qp / no-aq-motion / no-hdr / no-hdr-opt / no-dhdr10-opt / no-idr-recovery-sei / analysis-reuse-level=5 / scale-factor=0 / refine-intra=0 / refine-inter=0 / refine-mv=0 / no-limit-sao / ctu-info=0 / no-lowpass-dct / refine-mv-type=0 / copy-pic=1 / max-ausize-factor=1.0 / no-dynamic-refine / no-single-sei
Язык : Russian
Default : Да
Forced : Нет

Аудио #1
Идентификатор : 2
Формат : AC-3
Формат/Информация : Audio Coding 3
Идентификатор кодека : A_AC3
Продолжительность : 1 ч. 42 м.
Вид битрейта : Постоянный
Битрейт : 640 Кбит/сек
Каналы : 6 каналов
Расположение каналов : Front: L C R, Side: L R, LFE
Частота : 48,0 КГц
Частота кадров : 31,250 кадров/сек (1536 SPF)
Битовая глубина : 16 бит
Метод сжатия : С потерями
Размер потока : 468 Мбайт (12%)
Заголовок : DUB
Язык : Russian
ServiceKind/ : Complete Main
Default : Да
Forced : Нет

Аудио #2
Идентификатор : 3
Формат : AC-3
Формат/Информация : Audio Coding 3
Идентификатор кодека : A_AC3
Продолжительность : 1 ч. 42 м.
Вид битрейта : Постоянный
Битрейт : 640 Кбит/сек
Каналы : 6 каналов
Расположение каналов : Front: L C R, Side: L R, LFE
Частота : 48,0 КГц
Частота кадров : 31,250 кадров/сек (1536 SPF)
Битовая глубина : 16 бит
Метод сжатия : С потерями
Размер потока : 468 Мбайт (12%)
Язык : English
ServiceKind/ : Complete Main
Default : Нет
Forced : Нет

Текст #1
Идентификатор : 4
Формат : UTF-8
Идентификатор кодека : S_TEXT/UTF8
Идентификатор кодека/Информация : UTF-8 Plain Text
Продолжительность : 34 м. 48 с.
Битрейт : 0 бит/сек
ElementCount : 4
Размер потока : 155 байт (0%)
Заголовок : Forced
Язык : Russian
Default : Нет
Forced : Нет

Текст #2
Идентификатор : 5
Формат : UTF-8
Идентификатор кодека : S_TEXT/UTF8
Идентификатор кодека/Информация : UTF-8 Plain Text
Продолжительность : 1 ч. 31 м.
Битрейт : 97 бит/сек
ElementCount : 1339
Размер потока : 65,2 Кбайт (0%)
Заголовок : BD
Язык : Russian
Default : Нет
Forced : Нет

Текст #3
Идентификатор : 6
Формат : UTF-8
Идентификатор кодека : S_TEXT/UTF8
Идентификатор кодека/Информация : UTF-8 Plain Text
Продолжительность : 1 ч. 41 м.
Битрейт : 66 бит/сек
ElementCount : 1990
Размер потока : 49,9 Кбайт (0%)
Заголовок : SDH
Язык : English
Default : Нет
Forced : Нет

Меню
00:00:00.000 : en:(01)00:00:00:000
00:05:59.817 : en:(02)00:05:59:817
00:11:37.947 : en:(03)00:11:37:947
00:19:53.734 : en:(04)00:19:53:734
00:31:03.194 : en:(05)00:31:03:194
00:38:39.483 : en:(06)00:38:39:483
00:44:21.283 : en:(07)00:44:21:283
00:50:51.506 : en:(08)00:50:51:506
00:57:48.381 : en:(09)00:57:48:381
01:02:57.398 : en:(10)01:02:57:398
01:09:36.046 : en:(11)01:09:36:046
01:13:34.868 : en:(12)01:13:34:868
01:18:07.599 : en:(13)01:18:07:599
01:22:33.740 : en:(14)01:22:33:740
01:27:10.808 : en:(15)01:27:10:808
01:32:33.506 : en:(16)01:32:33:506
01:42:12.793 : en:(17)01:42:12:793
ЗалилГод выхода: 2013
Качество: BDRip 1080p
Перевод: Дублированный (Лицензия)

Описание: Когда древнее предсказание сбывается и королевство погружается в объятия вечной зимы, трое бесстрашных героев — принцесса Анна, отважный Кристофф и его верный олень Свен — отправляются в горы, чтобы найти сестру Анны, Эльзу, которая может снять со страны леденящее заклятие. По пути их ждет множество увлекательных сюрпризов и захватывающих приключений: встреча с мистическими троллями, знакомство с очаровательным снеговиком по имени Олаф, горные вершины покруче Эвереста и магия в каждой снежинке. Анне и Кристоффу предстоит сплотиться и противостоять могучей стихии, чтобы спасти королевство и тех, кто им дорог…

Аудио 1: AC3, 6 ch, 640 Kbps - Дублированный
Страна: США
Автор рипа:

Если у вас возникли проблемы с закачкой Холодное сердце / Frozen (2013) BDRip-HEVC 1080p от Kino-mix | Локализованная версия | Лицензия, перейдите по ссылке - там вы найдете решение своей проблемы.

Категория: Мультипликация

 

Холодное сердце / Frozen (2013) BDRip-HEVC 1080p от Kino-mix | Локализованная версия | Лицензия скачать торрент бесплатно на пк без регистрации

 

Информация
Посетители, находящиеся в группе Гости, не могут оставлять комментарии к данной публикации.
 
 
Холодное сердце / Frozen (2013) BDRip-HEVC 1080p от Kino-mix | Локализованная версия | Лицензия скачать торрент бесплатно на пк без регистрацииCopyright © 2019 .