Самый малый вперед! / Dead Slow Ahead (2015) BDRip-AVC от NNNB | A скачать торрент бесплатно на пк без регистрации




Субтитры: нет
_denis_100 Оценка1 из 10 (1 голосов, самая низкая оценка - 1, самая высокая - 1) КатегорияЗарубежные фильмы Раздают3 Качают0 Сидер замечен12-06-2019 9:19:12 (2 часа назад) Добавлен31-01-2018 18:20:36 (17 месяцев назад) Размер1.37 GB (1473694137 Bytes)Аудио: русский / AC3 / 5.1 / 48 kHz / 448 kbps /Автор рипа: Выпущено: Испания, Франция
Видео: 1024x540, 2209 Кбит/сек, 24 кадр/сек, 0,166 Бит/[Пиксели*Кадры]
Контейнер (Расширение): MKV
Навигация по главам(Чаптеры): есть
Жанр: документальный, фантастика, драма, детектив
Формат: AVC (библиотека кодирования x.264)
Перевод: Авторский одноголосый


Продолжительность: 01:13:56

Оригинальное название: Dead Slow Ahead
Русское название: Самый малый вперед!
Год выпуска: 2015
Качество: BDRip-AVC
ylnian


MediaInfo

Format : Matroska
Format version : Version 2
File size : 1.37 GiB
Duration : 1 h 13 min
Overall bit rate : 2 657 kb/s
Movie name : Dead Slow Ahead.2015.BDRip-AVC.[denis100]
Encoded date : UTC 2018-01-31 14:46:21
Writing application : mkvmerge v5.8.0 ('No Sleep / Pillow') built on Sep 2 2012 15:37:04
Writing library : libebml v1.2.3 + libmatroska v1.3.0

Video
ID : 1
Format : AVC
Format/Info : Advanced Video Codec
Format profile : High@L4.1
Format settings, CABAC : Yes
Format settings, ReFrames : 11 frames
Codec ID : V_MPEG4/ISO/AVC
Duration : 1 h 13 min
Bit rate : 2 209 kb/s
Width : 1 024 pixels
Height : 540 pixels
Display aspect ratio : 1.896
Frame rate mode : Constant
Frame rate : 24.000 FPS
Color space : YUV
Chroma subsampling : 4:2:0
Bit depth : 8 bits
Scan type : Progressive
Bits/(Pixel*Frame) : 0.166
Stream size : 1.11 GiB (81%)
Title : Dead Slow Ahead.2015.BDRip-AVC.[denis100]
Writing library : x264 core 152 r2851 ba24899
Encoding settings : cabac=1 / ref=11 / deblock=1:-3:-3 / analyse=0x3:0x113 / me=umh / subme=11 / psy=1 / psy_rd=1.00:0.05 / mixed_ref=1 / me_range=32 / chroma_me=1 / trellis=2 / 8x8dct=1 / cqm=0 / deadzone=21,11 / fast_pskip=0 / chroma_qp_offset=-3 / threads=6 / lookahead_threads=1 / sliced_threads=0 / nr=0 / decimate=1 / interlaced=0 / bluray_compat=0 / constrained_intra=0 / bframes=8 / b_pyramid=2 / b_adapt=2 / b_bias=0 / direct=3 / weightb=1 / open_gop=0 / weightp=2 / keyint=240 / keyint_min=24 / scenecut=40 / intra_refresh=0 / rc=2pass / mbtree=0 / bitrate=2209 / ratetol=1.0 / qcomp=0.60 / qpmin=0 / qpmax=69 / qpstep=4 / cplxblur=20.0 / qblur=0.5 / ip_ratio=1.40 / pb_ratio=1.30 / aq=1:0.95
Language : English
Default : Yes
Forced : No

Audio
ID : 2
Format : AC-3
Format/Info : Audio Coding 3
Mode extension : CM (complete main)
Format settings, Endianness : Big
Codec ID : A_AC3
Duration : 1 h 13 min
Bit rate mode : Constant
Bit rate : 448 kb/s
Channel(s) : 6 channels
Channel positions : Front: L C R, Side: L R, LFE
Sampling rate : 48.0 kHz
Frame rate : 31.250 FPS (1536 spf)
Compression mode : Lossy
Stream size : 237 MiB (17%)
Title : AVO, В. Назаров
Language : Russian
Default : Yes
Forced : No

Menu
00:00:00.000 : en:00:00:00.000
00:00:30.000 : en:00:00:30.000
00:16:32.458 : en:00:16:32.458
00:25:54.416 : en:00:25:54.416
00:38:14.000 : en:00:38:14.000
00:51:02.833 : en:00:51:02.833
01:01:23.250 : en:01:01:23.250


Скриншоты Залил|Авторский одноголосый, В. Назаров|
Сюжет фильма:
Грузовое судно пересекает океан. В завораживающем ритме его темпа показывается непрерывное движение механизма, пожирающего своих работников: жесты старых моряков исчезают под механическим и безличным пульсом нео-капитализма XXI века. Именно так теплится жизнь после глобального апокалипсиса на едином уцелевшем корабле. Поглощенные механикой существования люди будто забывают обратить внимание на величественную невероятность того, что происходит вокруг.



Режиссер: Мауро Эрсе
Самый малый вперед! / Dead Slow Ahead

Группа:

***За заказ перевода по английским субтитрам у Вадима Назарова (январь 2018) спасибо -

Если у вас возникли проблемы с закачкой Самый малый вперед! / Dead Slow Ahead (2015) BDRip-AVC от NNNB | A, перейдите по ссылке - там вы найдете решение своей проблемы.

Категория: Зарубежные фильмы

 

Самый малый вперед! / Dead Slow Ahead (2015) BDRip-AVC от NNNB | A скачать торрент бесплатно на пк без регистрации

 

Информация
Посетители, находящиеся в группе Гости, не могут оставлять комментарии к данной публикации.
 
 
Самый малый вперед! / Dead Slow Ahead (2015) BDRip-AVC от NNNB | A скачать торрент бесплатно на пк без регистрацииCopyright © 2019 .