Мой сын / Mon garçon (2017) BDRip-AVC от R.G.Resident | P скачать торрент бесплатно на пк без регистрации





Информация о фильме
Продолжительность: 01:24:57
Перевод: Профессиональный многоголосый [официальный звук]
Рейтинг:

Описание:
Постоянная занятость Жюльена разрушила его брак. Во время очередной командировки увлечённый карьерист получает страшную новость - его семилетний сын пропал без вести. Отец сам бросается на поиски ребёнка. С каждым новым поворотом событий его ярость возрастает, превращая его в животное, жаждущее расправы.
Релиз от:

ОтчетМедиаИнфо
Общее
Уникальный идентификатор : 138162261419437262331407852742443142633 (0x67F11569C581A8547438AECE9D0A0DE9)
Полное имя : E:TorrentfilmMoj.Sun.2017.MVO.BDRip.R.G.ResidentMon.Garcon.2017.BDRip-AVC.MVO.5.1.R.G.Resident.mkv
Формат : Matroska
Версия формата : Version 4 / Version 2
Размер файла : 1,51 Гбайт
Продолжительность : 1 ч. 25 м.
Общий поток : 2544 Кбит/сек
Название фильма : Мой сын / Mon garçon (2017) BDRip-AVC от R.G. Resident
Дата кодирования : UTC 2018-02-04 17:12:16
Программа кодирования : mkvmerge v20.0.0 ('I Am The Sun') 64-bit
Библиотека кодирования : libebml v1.3.5 + libmatroska v1.4.8

Видео
Идентификатор : 1
Формат : AVC
Формат/Информация : Advanced Video Codec
Профиль формата : High@L4.1
Настройки формата : CABAC / 12 Ref Frames
Параметр CABAC формата : Да
Параметр RefFrames формата : 12 кадров
Идентификатор кодека : V_MPEG4/ISO/AVC
Продолжительность : 1 ч. 24 м.
Битрейт : 1712 Кбит/сек
Ширина : 1024 пикселя
Высота : 428 пикселей
Соотношение сторон : 2,40:1
Режим частоты кадров : Постоянный
Частота кадров : 23,976 (24000/1001) кадра/сек
Цветовое пространство : YUV
Субдискретизация насыщенности : 4:2:0
Битовая глубина : 8 бит
Тип развёртки : Прогрессивная
Бит/(Пиксели*Кадры) : 0.163
Размер потока : 1,02 Гбайт (67%)
Заголовок : -Lexx-
Библиотека кодирования : x264 core 152 r2851kMod ba24899
Настройки программы : cabac=1 / ref=12 / deblock=1:-3:-3 / analyse=0x3:0x113 / me=umh / subme=11 / psy=1 / fade_compensate=0.00 / psy_rd=1.00:0.15 / mixed_ref=1 / me_range=48 / chroma_me=1 / trellis=2 / 8x8dct=1 / cqm=0 / deadzone=21,11 / fast_pskip=0 / chroma_qp_offset=-3 / threads=12 / lookahead_threads=3 / sliced_threads=0 / nr=0 / decimate=0 / interlaced=0 / bluray_compat=0 / constrained_intra=0 / bframes=14 / b_pyramid=2 / b_adapt=2 / b_bias=0 / direct=3 / weightb=1 / open_gop=0 / weightp=2 / keyint=240 / keyint_min=23 / scenecut=40 / intra_refresh=0 / rc_lookahead=40 / rc=2pass / mbtree=0 / bitrate=1712 / ratetol=1.0 / qcomp=0.60 / qpmin=0 / qpmax=69 / qpstep=4 / cplxblur=20.0 / qblur=0.5 / vbv_maxrate=50000 / vbv_bufsize=62500 / nal_hrd=none / filler=0 / ip_ratio=1.40 / pb_ratio=1.30 / aq=1:1.00
Язык : English
Default : Да
Forced : Нет
Цветовой диапазон : Limited
Основные цвета : BT.709
Характеристики трансфера : BT.709
Коэффициенты матрицы : BT.709

Аудио #1
Идентификатор : 2
Формат : AC-3
Формат/Информация : Audio Coding 3
Идентификатор кодека : A_AC3
Продолжительность : 1 ч. 25 м.
Вид битрейта : Постоянный
Битрейт : 384 Кбит/сек
Каналы : 6 каналов
Расположение каналов : Front: L C R, Side: L R, LFE
Частота : 48,0 КГц
Частота кадров : 31,250 кадров/сек (1536 SPF)
Битовая глубина : 16 бит
Метод сжатия : С потерями
Размер потока : 234 Мбайт (15%)
Заголовок : MVO
Язык : Russian
Default : Да
Forced : Нет

Аудио #2
Идентификатор : 3
Формат : AC-3
Формат/Информация : Audio Coding 3
Идентификатор кодека : A_AC3
Продолжительность : 1 ч. 24 м.
Вид битрейта : Постоянный
Битрейт : 448 Кбит/сек
Каналы : 6 каналов
Расположение каналов : Front: L C R, Side: L R, LFE
Частота : 48,0 КГц
Частота кадров : 31,250 кадров/сек (1536 SPF)
Битовая глубина : 16 бит
Метод сжатия : С потерями
Размер потока : 272 Мбайт (18%)
Заголовок : Original
Язык : French
Default : Нет
Forced : Нет

Текст #1
Идентификатор : 4
Формат : UTF-8
Идентификатор кодека : S_TEXT/UTF8
Идентификатор кодека/Информация : UTF-8 Plain Text
Продолжительность : 1 ч. 20 м.
Битрейт : 51 бит/сек
ElementCount : 702
Размер потока : 30,2 Кбайт (0%)
Заголовок : Full
Язык : Russian
Default : Нет
Forced : Нет

Текст #2
Идентификатор : 5
Формат : UTF-8
Идентификатор кодека : S_TEXT/UTF8
Идентификатор кодека/Информация : UTF-8 Plain Text
Продолжительность : 1 ч. 24 м.
Битрейт : 36 бит/сек
ElementCount : 691
Размер потока : 22,8 Кбайт (0%)
Заголовок : Full
Язык : French
Default : Нет
Forced : Нет

Меню
00:00:00.000 : :Chapter 1
00:04:05.995 : :Chapter 2
00:09:25.565 : :Chapter 3
00:17:46.940 : :Chapter 4
00:26:30.130 : :Chapter 5
00:35:04.852 : :Chapter 6
00:38:50.703 : :Chapter 7
00:49:37.099 : :Chapter 8
00:53:56.733 : :Chapter 9
00:59:22.267 : :Chapter 10
01:14:15.909 : :Chapter 11
01:22:01.082 : :Chapter 12
Скриншоты ЗалилАудио №1: русский / AC3 / 5.1 / 48 kHz / 384 kbps /Оригинальное название: Mon garçon
Страна: Франция, Бельгия
Режиссер: Кристиан Карион
|MVO|
Субтитры: русские (Full), французские (Full)
Видео: AVC, 1024x428 (2.40:1), 1712 kbps, 23,976 fps, 0,163 bpp
Качество: BDRip-AVC | исх. Mon.Garcon.2017.FRENCH.COMPLETE.BLURAY-4FR |
Название: Мой сын
Навигация по главам: есть
В ролях: Гийом Кане (Julien Perrin), Мелани Лоран (Marie Blanchard), Оливье де Бенуа (Grégoire Rochas), Антуан Хамель (Homme du pick-up), Mohamed Brikat (Lieutenant Verrier), Lino Papa (Mathys), Марк Роберт (Le chef des ravisseurs), Пьер Ланглуа (Ravisseur 2), Tristan Pagès (Ravisseur 3), Христоф Россигнон (Directeur Centre de loisirs), Пьер Демаре (Chasseur)

R.G. Resident Оценка8.5 из 10 (2 голосов, самая низкая оценка - 7, самая высокая - 10) КатегорияЗарубежные фильмы Раздают0 Качают0 Сидер замечен11-07-2019 0:19:12 (5 часов назад) Добавлен04-02-2018 20:41:54 (17 месяцев назад) Размер1.51 GB (1622822419 Bytes)Аудио №2: французский / AC3 / 5.1 / 48 kHz / 448 kbps /
Жанр: триллер, драма

Формат: MKV
Сэмпл

Примечание: Релиз без рекламы
Год выпуска: 2017

Если у вас возникли проблемы с закачкой Мой сын / Mon garçon (2017) BDRip-AVC от R.G.Resident | P, перейдите по ссылке - там вы найдете решение своей проблемы.

Категория: Зарубежные фильмы

 

Мой сын / Mon garçon (2017) BDRip-AVC от R.G.Resident | P скачать торрент бесплатно на пк без регистрации

 

Информация
Посетители, находящиеся в группе Гости, не могут оставлять комментарии к данной публикации.
 
 
Мой сын / Mon garçon (2017) BDRip-AVC от R.G.Resident | P скачать торрент бесплатно на пк без регистрацииCopyright © 2019 .