Майкл / Michael (1996) WEB-DLRip от Leon-masl | P2, A скачать торрент бесплатно на пк без регистрации






Информация о фильме
Название: Майкл
В ролях: Джон Траволта, Энди МакДауэлл, Уильям Хёрт, Боб Хоскинс, Роберт Пасторелли, Джин Степлтон, Тери Гарр, Уоллес Лэнгэм, Джои Лорен Эдамс, Карла Гуджино, Том Ходжис, Кэтрин Ллойд Барнс, Ричард Шифф, Джоан Фрегалетт Джэнсен, Джон Хасси, Маргарет Траволта, Джеймс Н. Харрелл, Дайян Дрейер

leon-masl Оценка10 из 10 (1 голосов, самая низкая оценка - 10, самая высокая - 10) КатегорияЗарубежные фильмы Раздают1 Качают0 Сидер замечен11-07-2019 4:19:11 (58 минут назад) Добавлен10-08-2015 12:53:13 (48 месяцев назад) Размер1.46 GB (1566701568 Bytes)Год выхода: 1996
О фильме:
Его зовут Майкл. Он живет где-то в захолустье, в прогорающем мотеле посреди штата Айова. Он любитель выпивки, женщин и праздной жизни. Он просто ангел… Не верите? У него, как и положено, есть крылья.




Релиз от: Сербин|

Оригинальное название: Michael
Кодек: XviD
Аудио 1: AC3, 2 ch, 192 kbps, 48 kHz | НТВ+
Аудио 2: AC3, 2 ch, 256 kbps, 48 kHz | Сербин
MIОбщее
Полное имя : Майкл.1996.WEB-DLRip.avi
Формат : AVI
Формат/Информация : Audio Video Interleave
Размер файла : 1,46 Гбайт
Продолжительность : 1 ч. 45 м.
Общий поток : 1988 Кбит/сек
Программа кодирования : VirtualDubMod 1.5.10.2 (build 2542/release)
Библиотека кодирования : VirtualDubMod build 2542/release

Видео
Идентификатор : 0
Формат : MPEG-4 Visual
Профиль формата : Advanced Simple@L5
Параметр BVOP формата : 1
Параметр QPel формата : Нет
Параметр GMC формата : Без точки перехода
Параметр матрицы формата : Выборочная
Идентификатор кодека : XVID
Идентификатор кодека/Подсказка : XviD
Продолжительность : 1 ч. 45 м.
Битрейт : 1526 Кбит/сек
Ширина : 704 пикс.
Высота : 400 пикс.
Соотношение сторон : 16:9
Частота кадров : 23,976 кадр/сек
Цветовое пространство : YUV
Подвыборка цветности : 4:2:0
Битовая глубина : 8 бит
Тип развёртки : Прогрессивная
Метод сжатия : С потерями
Бит/(Пиксели*Кадры) : 0.226
Размер потока : 1,12 Гбайт (77%)
Библиотека кодирования : XviD 73

Аудио #1
Идентификатор : 1
Формат : AC-3
Формат/Информация : Audio Coding 3
Расширение режима : CM (complete main)
Идентификатор кодека : 2000
Продолжительность : 1 ч. 45 м.
Вид битрейта : Постоянный
Битрейт : 192 Кбит/сек
Канал(ы) : 2 канала(ов)
Расположение каналов : Front: L R
Частота : 48,0 КГц
Битовая глубина : 16 бит
Метод сжатия : С потерями
Размер потока : 144 Мбайт (10%)
Выравнивание : Разделение по промежуткам
Продолжительность промежутка : 42 мс. (1,00 видеокадр)
Время предзагрузки промежутка : 500 ms

Аудио #2
Идентификатор : 2
Формат : AC-3
Формат/Информация : Audio Coding 3
Профиль формата : Dolby Digital
Расширение режима : CM (complete main)
Идентификатор кодека : 2000
Продолжительность : 1 ч. 45 м.
Вид битрейта : Постоянный
Битрейт : 256 Кбит/сек
Канал(ы) : 2 канала(ов)
Расположение каналов : Front: L R
Частота : 48,0 КГц
Битовая глубина : 16 бит
Метод сжатия : С потерями
Размер потока : 192 Мбайт (13%)
Выравнивание : Разделение по промежуткам
Продолжительность промежутка : 42 мс. (1,00 видеокадр)
Время предзагрузки промежутка : 500 msСкриншоты

Страна: США
Режиссер: Нора Эфрон / Nora Ephron
Leon-masl ЗалилСтудия: Alphaville Films, Krane Entertainment, Turner Pictures
НТВ+|, Авторский (одноголосый закадровый) |Жанр: фэнтези, драма, комедия
Перевод: Профессиональный (двухголосый закадровый) |Качество: WEB-DLRip
Продолжительность: 01:45:04
Видео: 704x400, 23,976 fps, 1526 kbps

Если у вас возникли проблемы с закачкой Майкл / Michael (1996) WEB-DLRip от Leon-masl | P2, A, перейдите по ссылке - там вы найдете решение своей проблемы.

Категория: Зарубежные фильмы

 

Майкл / Michael (1996) WEB-DLRip от Leon-masl | P2, A скачать торрент бесплатно на пк без регистрации

 

Информация
Посетители, находящиеся в группе Гости, не могут оставлять комментарии к данной публикации.
 
 
Майкл / Michael (1996) WEB-DLRip от Leon-masl | P2, A скачать торрент бесплатно на пк без регистрацииCopyright © 2019 .