Груз «300» (1989) DVDRip от New-Team скачать торрент бесплатно на пк без регистрации





Тип релиза:DVDRip
Год выпуска: 1989
Аудио: 48 kHz, MP3 2.0, 128 kbps

DVD5 R5
Раздача от:
MediaInfo
Общее
Полное имя : Gruz.300.1989.DVDRip-745_[New-team]_by_AVP_Studio.avi
Формат : AVI
Формат/Информация : Audio Video Interleave
Размер файла : 745 Мбайт
Продолжительность : 1 ч. 15 м.
Общий поток : 1379 Кбит/сек
Программа кодирования : VirtualDubModRus 1.5.10.2 (build 2542/release)
Библиотека кодирования : VirtualDubMod build 2542/release

Видео
Идентификатор : 0
Формат : MPEG-4 Visual
Профиль формата : Advanced Simple@L5
Параметр BVOP формата : 1
Параметр QPel формата : Нет
Параметр GMC формата : Без точки перехода
Параметр матрицы формата : Выборочная
Идентификатор кодека : XVID
Идентификатор кодека/Подсказка : XviD
Продолжительность : 1 ч. 15 м.
Битрейт : 1241 Кбит/сек
Ширина : 640 пикселей
Высота : 480 пикселей
Соотношение сторон : 4:3
Частота кадров : 25,000 кадров/сек
Цветовое пространство : YUV
Субдискретизация насыщенности : 4:2:0
Битовая глубина : 8 бит
Тип развёртки : Прогрессивная
Метод сжатия : С потерями
Бит/(Пиксели*Кадры) : 0.162
Размер потока : 670 Мбайт (90%)
Библиотека кодирования : XviD 73

Аудио
Идентификатор : 1
Формат : MPEG Audio
Версия формата : Version 1
Профиль формата : Layer 3
Идентификатор кодека : 55
Идентификатор кодека/Подсказка : MP3
Продолжительность : 1 ч. 15 м.
Вид битрейта : Постоянный
Битрейт : 128 Кбит/сек
Каналы : 2 канала
Частота : 48,0 КГц
Метод сжатия : С потерями
Размер потока : 69,1 Мбайт (9%)
Выравнивание : Соединение по промежуткам
Продолжительность промежутка : 40 мс. (1,00 видеокадр)
Время предзагрузки промежутка : 504 мс.
Библиотека кодирования : LAME3.99r
Настройки программы : -m s -V 4 -q 2 -lowpass 17 -b 128

Скриншоты

ЗалилИсходник:Производство: Свердловская киностудия

Жанр: драма, военный
Видео: 640x480 (4:3), 25 fps, XviD ~ 1241 kbps avg, 0.162 bit/pixel
Режиссер: Георгий Кузнецов

Перевод: не требуется
Описание:
Афганистан. 1986 год. От границы в сторону Кабула по горной дороге движется колонна советской военной бронетехники. С воздуха ее прикрывают боевые вертолеты. Путь колонны лежит через единственный в этих краях мост. Об этом прекрасно осведомлены афганские моджахеды и под руководством американских инструкторов готовят операцию по захвату моста и уничтожению заблокированной в этом случае советской техники.
В это время находящаяся в горах советская геологическая экспедиция подвергается ночному нападению душманов. Афганская охрана разбегается, и геологи решают уехать в Кабул. По дороге им сообщают о приближающейся военной колонне, с которой добираться до Кабула им будет значительно безопасней. Не знают они только одного, что уже давно включены моджахедами в операцию по захвату моста…



Оригинальная аудиодорожка: русский
Контейнер: AVI

AVPStudio ОценкаНикто ещё не поставил оценку КатегорияНаши фильмы Раздают0 Качают0 Сидер замечен26-05-2019 5:19:11 (2 месяца назад) Добавлен03-04-2014 21:23:25 (64 месяца назад) Размер744.80 MB (780982272 Bytes)Страна: СССР
Cубтитры: нет

Продолжительность: 01:15:30

В ролях:
Ромуальд Анцанс, Александр Данильченко, Александр Ческидов, Евгений Бунтов, Виктор Соловьев, Петр Вашчик, Сергей Иванов, Насир Соффи, Акхат Тураев, Мусо Исоев...

Если у вас возникли проблемы с закачкой Груз «300» (1989) DVDRip от New-Team, перейдите по ссылке - там вы найдете решение своей проблемы.

Категория: Наши фильмы

 

Груз «300» (1989) DVDRip от New-Team скачать торрент бесплатно на пк без регистрации

 

Информация
Посетители, находящиеся в группе Гости, не могут оставлять комментарии к данной публикации.
 
 
Груз «300» (1989) DVDRip от New-Team скачать торрент бесплатно на пк без регистрацииCopyright © 2019 .