Летящие сквозь ночь / Nightflyers [S01] (2018) WEBRip | OMSKBIRD скачать торрент бесплатно на пк без регистрации






Информация о фильме
О фильме:
История о группе исследователей, которые отправляются на далекую планету, чтобы найти загадочное существо, но в пути сталкиваются с другими опасностями.


Страна: США
Перевод: Любительский (многоголосый закадровый) |OMSKBIRD

Год выхода: 2018
Присутствует реклама!

Скриншоты

Mediainfo:General
Complete name : H:Мои ДокументыВидеоРАЗДАЧИЛЕТЯЩИЕNightflyers S01 WEBRip (OMSKBIRD)Nightflyers S01E01 WEBRip (OMSKBIRD).avi
Format : AVI
Format/Info : Audio Video Interleave
File size : 832 MiB
Duration : 58 min 57 s
Overall bit rate : 1 972 kb/s
Writing application : VirtualDubMod 1.5.10.3 | www.virtualdub-fr.org || (build 2550/release)
Writing library : VirtualDubMod build 2550/release

Video
ID : 0
Format : MPEG-4 Visual
Format profile : Advanced Simple@L5
Format settings, BVOP : 1
Format settings, QPel : No
Format settings, GMC : No warppoints
Format settings, Matrix : Default (H.263)
Codec ID : XVID
Codec ID/Hint : XviD
Duration : 58 min 57 s
Bit rate : 1 771 kb/s
Width : 720 pixels
Height : 400 pixels
Display aspect ratio : 16:9
Frame rate : 23.976 (24000/1001) FPS
Color space : YUV
Chroma subsampling : 4:2:0
Bit depth : 8 bits
Scan type : Progressive
Compression mode : Lossy
Bits/(Pixel*Frame) : 0.256
Stream size : 747 MiB (90%)
Writing library : XviD 67

Audio
ID : 1
Format : AC-3
Format/Info : Audio Coding 3
Format settings, Endianness : Big
Codec ID : 2000
Duration : 58 min 57 s
Bit rate mode : Constant
Bit rate : 192 kb/s
Channel(s) : 2 channels
Channel positions : Front: L R
Sampling rate : 48.0 kHz
Frame rate : 31.250 FPS (1536 SPF)
Bit depth : 16 bits
Compression mode : Lossy
Stream size : 81.0 MiB (10%)
Alignment : Split accross interleaves
Interleave, duration : 42 ms (1.00 video frame)
Interleave, preload duratio : 500 ms
Service kind : Complete Main

















ЗалилНазвание: Летящие сквозь ночь
Видео: AVI, 720x400 (16:9), 23.976 fps, ~ 1800 kbps
Кодек: Xvid
В ролях: Джоди Смит, Гретхен Мол, Оуэн Мэкен, Дэвид Аджала, Энгус Сэмпсон, Сэм Страйк, Майя Эшет и др. и др.
Gater_media ОценкаНикто ещё не поставил оценку КатегорияЗарубежные сериалы Раздают4 Качают3 Сидер замечен11-07-2019 4:19:11 (58 минут назад) Добавлен15-12-2018 18:09:30 (7 месяцев назад) Размер6.02 GB (6467065884 Bytes)Качество: WEBRip
Звук: Режиссер: Эндрю МакКарти, Майк Кэхилл, Мэгги Кили
Оригинальное название: Nightflyers
Жанр: ужасы, фантастика
Продолжительность: ~ 00:50:00 серия
Аудио rus: AC-3, 48 KHz, 2 ch, 192 kbps | OMSKBIRD records

Семпл

Если у вас возникли проблемы с закачкой Летящие сквозь ночь / Nightflyers [S01] (2018) WEBRip | OMSKBIRD, перейдите по ссылке - там вы найдете решение своей проблемы.

Категория: Зарубежные сериалы

 

Летящие сквозь ночь / Nightflyers [S01] (2018) WEBRip | OMSKBIRD скачать торрент бесплатно на пк без регистрации

 

Информация
Посетители, находящиеся в группе Гости, не могут оставлять комментарии к данной публикации.
 
 
Летящие сквозь ночь / Nightflyers [S01] (2018) WEBRip | OMSKBIRD скачать торрент бесплатно на пк без регистрацииCopyright © 2019 .