Константин: Повелитель тьмы / Constantine (2005) BDRemux 1080p | D, A скачать торрент бесплатно на пк без регистрации






Качество: BDRemux 1080p
Студия: Warner Bros. Pictures
О фильме:
Джону Константину удалось не только побывать в аду, но и вернуться обратно. Родившись с неугодным самому себе талантом — способностью распознавать помесь ангелов и демонов, которые бродят по земле в облике людей, — Константин под давлением обстоятельств пытается совершить самоубийство, лишь бы избавиться от мучительных видений. Но неудачно. Воскрешенный против собственной воли он снова оказывается в мире живых. Теперь, отмеченный печатью суицида и получивший временное право на жизнь, он патрулирует границу, разделяющую рай и ад, тщетно надеясь на обретение спасения путем сражения с земными ставленниками зла. Но и Константин не святой. Приходя всё в большее разочарование от окружающего мира, и будучи не в ладу с миром потусторонним, ожесточившись от тяжелой жизни, он начинает спиваться, с презрением относясь к самой идее героизма. Константин будет бороться за вашу душу, но ему не нужно ни ваше восхищение, ни ваша благодарность. И уж меньше всего ваше сочувствие! Все, что ему нужно, — это найти выход. Когда отчаявшаяся, но не растерявшая свой скептицизм сотрудница полиции заручается поддержкой Константина для раскрытия загадочного самоубийства ее сестры-близнеца, расследование заводит их в мир демонов и ангелов, что находится в подземелье современного мегаполиса Лос-Анджелеса. Попав в череду катастрофических событий иного мира, Константин и Анджела настолько увязают в них, что обретение мира и спокойствия любой ценой становится для них самоцелью…



Ведро Укропа Оценка10 из 10 (1 голосов, самая низкая оценка - 10, самая высокая - 10) КатегорияЗарубежные фильмы Раздают4 Качают2 Сидер замечен11-07-2019 21:19:14 (58 минут назад) Добавлен02-10-2017 14:42:58 (22 месяца назад) Размер12.88 GB (13827358941 Bytes)Название: Константин: Повелитель тьмы
Russian: DTS-HD MA / 5.1 / 48 kHz / 1998 kbps -Жанр: Фэнтези, боевик, триллер
Звук:
Aвторский (Матвеев)
English: Dolby Digital Audio / 5.1 / 48 kHz / 640 kbps -Оригинал

MediaInfoGeneral
Complete name : D:FilmsConstantine (2005) BDRemux 1080p.mkv
Format : Matroska
File size : 12.9 GiB
Duration : 2h 0mn
Overall bit rate : 15.3 Mbps
Movie name : Константин: Повелитель тьмы / Constantine (2005)
Encoded date : UTC 2017-10-02 10:57:38
Writing application : mkvmerge v4.9.1 ('Ich will') сборка от Jul 11 2011 23:53:15
Writing library : libebml v1.2.1 + libmatroska v1.1.1

Video
ID : 1
Format : VC-1
Format profile : AP@L3
Codec ID : WVC1
Codec ID/Hint : Microsoft
Duration : 2h 0mn
Width : 1 920 pixels
Height : 1 080 pixels
Display aspect ratio : 16:9
Frame rate : 23.976 fps
Resolution : 24 bits
Colorimetry : 4:2:0
Scan type : Progressive
Title : Константин: Повелитель тьмы / Constantine (2005)

Audio #1
ID : 2
Format : AC-3
Format/Info : Audio Coding 3
Codec ID : A_AC3
Duration : 2h 0mn
Bit rate mode : Constant
Bit rate : 640 Kbps
Channel(s) : 6 channels
Channel positions : Front: L C R, Surround: L R, LFE
Sampling rate : 48.0 KHz
Stream size : 553 MiB (4%)
Title : Russian / Dolby Digital Audio / 5.1 / 48 kHz / 640 kbps / Dub
Language : Russian

Audio #2
ID : 3
Format : DTS
Format/Info : Digital Theater Systems
Format profile : MA
Codec ID : A_DTS
Duration : 2h 0mn
Bit rate mode : Variable
Channel(s) : 6 channels
Channel positions : Front: L C R, Surround: L R, LFE
Sampling rate : 48.0 KHz
Resolution : 16 bits
Title : Russian / DTS-HD Master Audio (Матвеев)
Language : Russian

Audio #3
ID : 4
Format : AC-3
Format/Info : Audio Coding 3
Codec ID : A_AC3
Duration : 2h 0mn
Bit rate mode : Constant
Bit rate : 640 Kbps
Channel(s) : 6 channels
Channel positions : Front: L C R, Surround: L R, LFE
Sampling rate : 48.0 KHz
Stream size : 553 MiB (4%)
Title : English / Dolby Digital Audio / 5.1 / 48 kHz / 640 kbps
Скриншоты ЗалилГод выхода: 2005
Формат: MKV
Страна: США, Германия
Режиссер: Фрэнсис Лоуренс / Francis Lawrence
Видео: VC-1 Video / 11884 kbps / 1080p / 23,976 fps
В ролях: Киану Ривз, Рейчел Вайс, Шайа ЛаБаф, Джимон Хунсу, Макс Бейкер, Прюитт Тэйлор Винс, Гэвин Россдэйл, Тильда Суинтон, Петер Стормаре, Джесси Рамирез

Оригинальное название: Constantine
Перевод: Профессиональный (дублированный), авторский (одноголосый)

Продолжительность: 02:00:47
Дубляж
Russian: Dolby Digital Audio / 5.1 / 48 kHz / 640 kbps -

Если у вас возникли проблемы с закачкой Константин: Повелитель тьмы / Constantine (2005) BDRemux 1080p | D, A, перейдите по ссылке - там вы найдете решение своей проблемы.

Категория: Зарубежные фильмы

 

Константин: Повелитель тьмы / Constantine (2005) BDRemux 1080p | D, A скачать торрент бесплатно на пк без регистрации

 

Информация
Посетители, находящиеся в группе Гости, не могут оставлять комментарии к данной публикации.
 
 
Константин: Повелитель тьмы / Constantine (2005) BDRemux 1080p | D, A скачать торрент бесплатно на пк без регистрацииCopyright © 2019 .