Излом времени / A Wrinkle in Time (2018) BDRip-AVC от OlLanDGroup | Лицензия скачать торрент бесплатно на пк без регистрации






Описание: Юная Мэг вместе с младшим братом и школьным приятелем решает отправиться на поиски своего отца, учёного-физика, пропавшего в ходе научного эксперимента. Найти его предстоит не в привычном мире, а в таинственных изломах времени и пространства, где понятие реальности относительно и ничему нельзя верить! Выбраться из фантастических миров и победить тьму, которая распространяется по вселенной, можно, только изучив себя и приняв свои недостатки.



Rip by:

MediaInfo
Общее
Уникальный идентификатор : 281165861583025446933037319471284721639 (0xD38693415EBEC7DB4EC6B21BC05597E7)
Полное имя : F:OlLanDGroupA.Wrinkle.In.Time.2018.BDRip(AVC).OlLanDGroup.mkv
Формат : Matroska
Версия формата : Version 4 / Version 2
Размер файла : 2,10 Гбайт
Продолжительность : 1 ч. 49 м.
Общий поток : 2742 Кбит/сек
Название фильма : A.Wrinkle.In.Time.2018 #TorpedoUK#
Дата кодирования : UTC 2018-09-21 02:44:57
Программа кодирования : mkvmerge v25.0.0 ('Prog Noir') 64-bit
Библиотека кодирования : libebml v1.3.6 + libmatroska v1.4.9

Видео
Идентификатор : 1
Формат : AVC
Формат/Информация : Advanced Video Codec
Профиль формата : High@L4.1
Параметр CABAC формата : Да
Параметр ReFrames формата : 10 кадров
Идентификатор кодека : V_MPEG4/ISO/AVC
Продолжительность : 1 ч. 49 м.
Битрейт : 1843 Кбит/сек
Ширина : 1024 пикселя
Высота : 428 пикселей
Соотношение сторон : 2,40:1
Режим частоты кадров : Постоянный
Частота кадров : 23,976 (24000/1001) кадра/сек
Цветовое пространство : YUV
Субдискретизация насыщенности : 4:2:0
Битовая глубина : 8 бит
Тип развёртки : Прогрессивная
Бит/(Пиксели*Кадры) : 0.175
Размер потока : 1,41 Гбайт (67%)
Библиотека кодирования : x264 core 146 r2538 121396c
Настройки программы : cabac=1 / ref=10 / deblock=1:-3:-3 / analyse=0x3:0x133 / me=umh / subme=11 / psy=1 / psy_rd=1.00:0.03 / mixed_ref=1 / me_range=48 / chroma_me=1 / trellis=2 / 8x8dct=1 / cqm=0 / deadzone=21,11 / fast_pskip=1 / chroma_qp_offset=-3 / threads=6 / lookahead_threads=1 / sliced_threads=0 / nr=0 / decimate=1 / interlaced=0 / bluray_compat=0 / constrained_intra=0 / bframes=10 / b_pyramid=2 / b_adapt=2 / b_bias=0 / direct=3 / weightb=1 / open_gop=0 / weightp=2 / keyint=240 / keyint_min=23 / scenecut=40 / intra_refresh=0 / rc_lookahead=40 / rc=2pass / mbtree=0 / bitrate=1843 / ratetol=1.0 / qcomp=0.60 / qpmin=0 / qpmax=69 / qpstep=4 / cplxblur=20.0 / qblur=0.5 / vbv_maxrate=50000 / vbv_bufsize=62500 / nal_hrd=none / filler=0 / ip_ratio=1.40 / pb_ratio=1.30 / aq=1:1.00
Язык : English
Default : Да
Forced : Нет

Аудио #1
Идентификатор : 2
Формат : AC-3
Формат/Информация : Audio Coding 3
Расширение режима : CM (complete main)
Параметр Endianness формата : Big
Идентификатор кодека : A_AC3
Продолжительность : 1 ч. 49 м.
Вид битрейта : Постоянный
Битрейт : 448 Кбит/сек
Каналы : 6 каналов
Расположение каналов : Front: L C R, Side: L R, LFE
Частота : 48,0 КГц
Частота кадров : 31,250 кадров/сек (1536 spf)
Битовая глубина : 16 бит
Метод сжатия : С потерями
Размер потока : 351 Мбайт (16%)
Заголовок : [License]
Язык : Russian
Default : Да
Forced : Нет

Аудио #2
Идентификатор : 3
Формат : AC-3
Формат/Информация : Audio Coding 3
Расширение режима : CM (complete main)
Параметр Endianness формата : Big
Идентификатор кодека : A_AC3
Продолжительность : 1 ч. 49 м.
Вид битрейта : Постоянный
Битрейт : 448 Кбит/сек
Каналы : 6 каналов
Расположение каналов : Front: L C R, Side: L R, LFE
Частота : 48,0 КГц
Частота кадров : 31,250 кадров/сек (1536 spf)
Битовая глубина : 16 бит
Метод сжатия : С потерями
Размер потока : 351 Мбайт (16%)
Заголовок : [Original]
Язык : English
Default : Нет
Forced : Нет

Текст #1
Идентификатор : 4
Формат : UTF-8
Идентификатор кодека : S_TEXT/UTF8
Идентификатор кодека/Информация : UTF-8 Plain Text
Продолжительность : 1 ч. 34 м.
Битрейт : 0 бит/сек
Count of elements : 2
Размер потока : 110 байт (0%)
Заголовок : Forced
Язык : Russian
Default : Да
Forced : Нет

Текст #2
Идентификатор : 5
Формат : UTF-8
Идентификатор кодека : S_TEXT/UTF8
Идентификатор кодека/Информация : UTF-8 Plain Text
Продолжительность : 1 ч. 38 м.
Битрейт : 75 бит/сек
Count of elements : 1292
Размер потока : 54,2 Кбайт (0%)
Заголовок : Full
Язык : Russian
Default : Нет
Forced : Нет

Текст #3
Идентификатор : 6
Формат : UTF-8
Идентификатор кодека : S_TEXT/UTF8
Идентификатор кодека/Информация : UTF-8 Plain Text
Продолжительность : 1 ч. 41 м.
Битрейт : 88 бит/сек
Count of elements : 1574
Размер потока : 65,5 Кбайт (0%)
Заголовок : SDH
Язык : Russian
Default : Нет
Forced : Нет

Текст #4
Идентификатор : 7
Формат : UTF-8
Идентификатор кодека : S_TEXT/UTF8
Идентификатор кодека/Информация : UTF-8 Plain Text
Продолжительность : 1 ч. 45 м.
Битрейт : 45 бит/сек
Count of elements : 1412
Размер потока : 35,3 Кбайт (0%)
Заголовок : Full
Язык : English
Default : Нет
Forced : Нет

Текст #5
Идентификатор : 8
Формат : UTF-8
Идентификатор кодека : S_TEXT/UTF8
Идентификатор кодека/Информация : UTF-8 Plain Text
Продолжительность : 1 ч. 46 м.
Битрейт : 52 бит/сек
Count of elements : 1597
Размер потока : 41,4 Кбайт (0%)
Заголовок : SDH
Язык : English
Default : Нет
Forced : Нет

Меню
00:00:00.000 : en:Chapter 1
00:09:39.870 : en:Chapter 2
00:13:46.866 : en:Chapter 3
00:18:04.083 : en:Chapter 4
00:21:28.287 : en:Chapter 5
00:28:32.501 : en:Chapter 6
00:39:14.809 : en:Chapter 7
00:48:41.251 : en:Chapter 8
00:54:03.197 : en:Chapter 9
01:03:04.530 : en:Chapter 10
01:09:48.265 : en:Chapter 11
01:19:03.195 : en:Chapter 12
01:29:05.546 : en:Chapter 13
01:40:03.497 : en:Chapter 14

Скриншоты


ЗалилАудио #2: 48 kHz, AC3 Dolby Digital, 3/2 (L,C,R,l,r) + LFE ch, ~448.00 kbps avg | ENG

В ролях: Сторм Рейд, Опра Уинфри, Риз Уизерспун, Минди Кейлинг, Леви Миллер, Дерик Маккейб, Крис Пайн, Гугу Мбата-Роу, Зак Галифианакис, Майкл Пенья, Андре Холлэнд, Роуэн Бланчард, Беллами Янг, Дэвид Ойелоуо, Конрад Робертс, Ивет Кейсон, Уилл МакКормак, Дэниэл МакФерсон, Тэрин Лук, Тим Кенг, Лайрик Уилсон

Продолжительность: 01:49:37

Видео кодек: MPEG-4 AVC
[Лицензия]
Видео: 1024x428 (2.40:1), 23,976 fps, x264 ~1 843 kbps avg, 0.177 bit/pixel
Качество: BDRip-AVC
Излом времени / A Wrinkle in Time
«Be a warrior»


Аудио кодек: AC3
Жанр: Фантастика, фэнтези, приключения, семейный

Реклама: Отсутствует

Производство: Walt Disney Pictures
Субтитры: Русские (форс., полные, SDH), английские (полные, SDH)
TorpedoUK ОценкаНикто ещё не поставил оценку КатегорияЗарубежные фильмы Раздают9 Качают0 Сидер замечен14-07-2019 1:19:12 (58 минут назад) Добавлен21-09-2018 5:47:42 (10 месяцев назад) Размер2.10 GB (2254114333 Bytes)Цифровой релиз: 10 мая 2018, «Warner Bros.»


Аудио #1: 48 kHz, AC3 Dolby Digital, 3/2 (L,C,R,l,r) + LFE ch, ~448.00 kbps avg | RUS (Лицензия)
Релиз от: Перевод: Дублированный |Дата премьеры (мир): 26 июня 2017
Год выпуска: 2018
Формат: MKV
Режиссёр: Ава ДюВерней
Страна: США

Если у вас возникли проблемы с закачкой Излом времени / A Wrinkle in Time (2018) BDRip-AVC от OlLanDGroup | Лицензия, перейдите по ссылке - там вы найдете решение своей проблемы.

Категория: Зарубежные фильмы

 

Излом времени / A Wrinkle in Time (2018) BDRip-AVC от OlLanDGroup | Лицензия скачать торрент бесплатно на пк без регистрации

 

Информация
Посетители, находящиеся в группе Гости, не могут оставлять комментарии к данной публикации.
 
 
Излом времени / A Wrinkle in Time (2018) BDRip-AVC от OlLanDGroup | Лицензия скачать торрент бесплатно на пк без регистрацииCopyright © 2019 .