Телекинез / Carrie (2013) HDRip-AVC от ExKinoRay | D, A | Лицензия | Extended Cut скачать торрент бесплатно на пк без регистрации






Информация о фильме
Перевод 1: Профессиональный (полное дублирование) [Лицензия] BluRay CEE со вставкой AVO (А. Дольский) на альтернативную концовку
Оригинальное название: Carrie
Качество: BDRip (AVC)
Жанр: триллер, ужасы, драма
Enigma2010 ОценкаНикто ещё не поставил оценку КатегорияЗарубежные фильмы Раздают1 Качают0 Сидер замечен11-07-2019 23:19:12 (2 дня назад) Добавлен04-06-2014 3:14:54 (62 месяца назад) Размер2.56 GB (2750559255 Bytes)Cубтитры: русские (full, forced), украинские, английские

Режиссер: Кимберли Пирс / Kimberly Peirce
О фильме:Невзрачная старшеклассница по имени Кэрри с рождения обладает способностями телекинеза. Давление со стороны фанатично религиозной мамочки и постоянные издевки сверстников лишь способствует развитию ее сверхъестественных способностей. На выпускном одноклассники решают жестоко подшутить над ней, что приводит к фатальным последствиям.




В ролях: Хлоя Грэйс Моретц, Джулианна Мур, Джуди Грир, Энсел Эльгорт, Портия Даблдэй, Габриэлла Уайлд, Коннор Прайс, Алекс Расселл, Мишель Нолден, Макс Топплин, Синтия Престон

Продолжительность: 01:40:56
Год выхода: 2013
Звук: Aудио#1: 48 kHz, AC3, 3/2 (L,C,R,l,r) + LFE ch, ~448 kbps avg |Дубляж|
Aудио#2: Russian: 48 kHz, AC3, 3/2 (L,C,R,l,r) + LFE ch, ~448 kbps avg |Одноголосый закадровый, А.Дольский|
Aудио#3: Ukrainian: 48 kHz, AC3, 3/2 (L,C,R,l,r) + LFE ch, ~448 kbps avg |Дубляж|
Aудио#4: English: 48 kHz, AC3, 3/2 (L,C,R,l,r) + LFE ch, ~384 kbps avg


MIGeneral
Unique ID : 229696840273779949763239627594880296825 (0xACCE009584384182B058D92BA864A779)
Complete name : C:Carrie.UNRATED.2013.D.BDRip.AVC.ExKinoRay.mkv
Format : Matroska
Format version : Version 2
File size : 2.56 GiB
Duration : 1h 40mn
Overall bit rate : 3 633 Kbps
Movie name : Carrie UNRATED from ExKinoRay
Encoded date : UTC 2014-06-03 17:12:20
Writing application : mkvmerge v4.9.1 ('Ich will') built on Jul 11 2011 23:53:15
Writing library : libebml v1.2.1 + libmatroska v1.1.1

Video
ID : 1
Format : AVC
Format/Info : Advanced Video Codec
Format profile : High@L4.1
Format settings, CABAC : Yes
Format settings, ReFrames : 9 frames
Codec ID : V_MPEG4/ISO/AVC
Duration : 1h 40mn
Bit rate : 1 905 Kbps
Width : 1 024 pixels
Height : 436 pixels
Display aspect ratio : 2.35:1
Frame rate mode : Constant
Frame rate : 23.976 fps
Color space : YUV
Chroma subsampling : 4:2:0
Bit depth : 8 bits
Scan type : Progressive
Bits/(Pixel*Frame) : 0.178
Stream size : 1.29 GiB (50%)
Title : Enigma-Vladislav71
Writing library : x264 core 116 r2044 392e762
Encoding settings : cabac=1 / ref=9 / deblock=1:-2:-2 / analyse=0x3:0x113 / me=umh / subme=10 / psy=1 / psy_rd=1.00:0.20 / mixed_ref=1 / me_range=32 / chroma_me=1 / trellis=2 / 8x8dct=1 / cqm=0 / deadzone=21,11 / fast_pskip=0 / chroma_qp_offset=-3 / threads=12 / sliced_threads=0 / nr=0 / decimate=0 / interlaced=0 / bluray_compat=0 / constrained_intra=0 / bframes=8 / b_pyramid=2 / b_adapt=2 / b_bias=0 / direct=3 / weightb=1 / open_gop=0 / weightp=2 / keyint=240 / keyint_min=23 / scenecut=40 / intra_refresh=0 / rc=2pass / mbtree=0 / bitrate=1905 / ratetol=1.0 / qcomp=0.60 / qpmin=0 / qpmax=69 / qpstep=4 / cplxblur=20.0 / qblur=0.5 / ip_ratio=1.40 / pb_ratio=1.30 / aq=1:1.00
Default : Yes
Forced : No

Audio #1
ID : 2
Format : AC-3
Format/Info : Audio Coding 3
Mode extension : CM (complete main)
Format settings, Endianness : Big
Codec ID : A_AC3
Duration : 1h 40mn
Bit rate mode : Constant
Bit rate : 448 Kbps
Channel(s) : 6 channels
Channel positions : Front: L C R, Side: L R, LFE
Sampling rate : 48.0 KHz
Bit depth : 16 bits
Compression mode : Lossy
Stream size : 323 MiB (12%)
Title : BD CEE
Language : Russian
Default : No
Forced : No

Audio #2
ID : 3
Format : AC-3
Format/Info : Audio Coding 3
Mode extension : CM (complete main)
Format settings, Endianness : Big
Codec ID : A_AC3
Duration : 1h 40mn
Bit rate mode : Constant
Bit rate : 448 Kbps
Channel(s) : 6 channels
Channel positions : Front: L C R, Side: L R, LFE
Sampling rate : 48.0 KHz
Bit depth : 16 bits
Compression mode : Lossy
Stream size : 323 MiB (12%)
Title : AVO
Language : Russian
Default : No
Forced : No

Audio #3
ID : 4
Format : AC-3
Format/Info : Audio Coding 3
Mode extension : CM (complete main)
Format settings, Endianness : Big
Codec ID : A_AC3
Duration : 1h 40mn
Bit rate mode : Constant
Bit rate : 448 Kbps
Channel(s) : 6 channels
Channel positions : Front: L C R, Side: L R, LFE
Sampling rate : 48.0 KHz
Bit depth : 16 bits
Compression mode : Lossy
Stream size : 323 MiB (12%)
Title : BD CEE
Language : Ukrainian
Default : No
Forced : No

Audio #4
ID : 5
Format : AC-3
Format/Info : Audio Coding 3
Mode extension : CM (complete main)
Format settings, Endianness : Big
Codec ID : A_AC3
Duration : 1h 40mn
Bit rate mode : Constant
Bit rate : 384 Kbps
Channel(s) : 6 channels
Channel positions : Front: L C R, Side: L R, LFE
Sampling rate : 48.0 KHz
Bit depth : 16 bits
Compression mode : Lossy
Stream size : 277 MiB (11%)
Language : English
Default : No
Forced : No

Text #1
ID : 6
Format : UTF-8
Codec ID : S_TEXT/UTF8
Codec ID/Info : UTF-8 Plain Text
Language : Russian
Default : No
Forced : No

Text #2
ID : 7
Format : UTF-8
Codec ID : S_TEXT/UTF8
Codec ID/Info : UTF-8 Plain Text
Language : Russian
Default : No
Forced : No

Text #3
ID : 8
Format : UTF-8
Codec ID : S_TEXT/UTF8
Codec ID/Info : UTF-8 Plain Text
Language : Ukrainian
Default : No
Forced : No

Text #4
ID : 9
Format : UTF-8
Codec ID : S_TEXT/UTF8
Codec ID/Info : UTF-8 Plain Text
Language : English
Default : No
Forced : No

Text #5
ID : 10
Format : UTF-8
Codec ID : S_TEXT/UTF8
Codec ID/Info : UTF-8 Plain Text
Title : SDH
Language : English
Default : No
Forced : No

Menu
00:00:00.000 : en:
00:04:14.545 : en:
00:06:37.855 : en:
00:10:07.648 : en:
00:12:03.681 : en:
00:14:46.176 : en:
00:18:50.462 : en:
00:23:15.060 : en:
00:26:51.401 : en:
00:30:50.974 : en:
00:32:27.862 : en:
00:36:18.092 : en:
00:38:20.339 : en:
00:41:47.755 : en:
00:46:22.196 : en:
00:51:01.850 : en:
00:53:09.853 : en:
00:55:47.677 : en:
01:00:52.065 : en:
01:04:02.338 : en:
01:07:03.310 : en:
01:09:38.382 : en:
01:13:05.381 : en:
01:18:25.158 : en:
01:22:46.711 : en:
01:25:17.862 : en:
01:29:25.360 : en:
01:33:36.402 : en:


Скриншоты




Название: Телекинез
Кодек: H264
Авторы релиза: ЗалилПеревод 2: Авторский (одноголосый закадровый) [А. Дольский]
Видео: MPEG-4 AVC, 1905 kbps, 1024x436
Релиз от:
Страна: США

Если у вас возникли проблемы с закачкой Телекинез / Carrie (2013) HDRip-AVC от ExKinoRay | D, A | Лицензия | Extended Cut, перейдите по ссылке - там вы найдете решение своей проблемы.

Категория: Зарубежные фильмы

 

Телекинез / Carrie (2013) HDRip-AVC от ExKinoRay | D, A | Лицензия | Extended Cut скачать торрент бесплатно на пк без регистрации

 

Информация
Посетители, находящиеся в группе Гости, не могут оставлять комментарии к данной публикации.
 
 
Телекинез / Carrie (2013) HDRip-AVC от ExKinoRay | D, A | Лицензия | Extended Cut скачать торрент бесплатно на пк без регистрацииCopyright © 2019 .