Военные потери / Casualties of War (1989) HDTVRip-AVC от 0ptimus | P, A скачать торрент бесплатно на пк без регистрации






Информация о фильме
О фильме:
«Военные потери» основан на реальной истории, случившейся со взводом американских солдат во время войны во Вьетнаме. Рядовой Эрикссон становится свидетелем ужасного изнасилования и убийства вьетнамской девушки во время боевой операции. Отстаивая свою позицию, он вынужден противостоять всему взводу и его командиру — сержанту Месерву — человеку, давно забывшему о таком чувстве, как сострадание…



Студия: Columbia Pictures
Режиссер: Брайан Де Пальма
Продолжительность: 01:48:53
Страна: США
Звук:
• №1: Русский (AC3, 6 ch, 384 Кбит/с) Профессиональный многоголосый
• №2: Русский (AC3, 2 ch, 192 Кбит/с) Авторский одноголосый [Юрий Живов]
• №3: Английский (AC3, 6 ch, 384 Кбит/с)

Год выхода: 1989
Перевод: Профессиональный (многоголосый закадровый), авторский (одноголосый закадровый)

0ptimus Оценка10 из 10 (1 голосов, самая низкая оценка - 10, самая высокая - 10) КатегорияЗарубежные фильмы Раздают0 Качают1 Сидер замечен13-07-2019 6:19:12 (22 часа назад) Добавлен12-01-2014 13:15:09 (67 месяцев назад) Размер3.20 GB (3434892262 Bytes)В ролях: Майкл Дж. Фокс, Шон Пенн, Дон Харви, Джон С. Райлли, Джон Легуизамо, Тхюй Тху Ле, Эрик Кинг, Джек Гуолтни, Винг Рэймс, Дэн Мартин

Качество: HDTVRip-AVC
Релиз от: ЗалилНазвание: Военные потери / Список погибших / Жертвы войны
Жанр: драма, приключения, военный
Субтитры: Русские, английские

MediaInfo
----------------------------------------------------------------------
x264 [info]: frame I:990 Avg QP:18.25 size: 89287
x264 [info]: frame P:39327 Avg QP:20.62 size: 28859
x264 [info]: frame B:123014 Avg QP:22.55 size: 11589
----------------------------------------------------------------------

Полное имя : Casualties.of.War.1989.x264.HDTVRip.(AVC).0ptimus.mkv
Формат : Matroska
Версия формата : Version 4 / Version 2
Размер файла : 3,20 Гбайт
Продолжительность : 1 ч. 48 м.
Общий поток : 4206 Кбит/сек
Название фильма : Военные потери | Casualties of War [1989] -=HDTVRip (AVC) by 0ptimus=-
Дата кодирования : UTC 2014-01-06 06:15:18
Программа кодирования : mkvmerge v6.6.0 ('The Edge Of The In Between') built on Dec 1 2013 17:55:00
Библиотека кодирования : libebml v1.3.0 + libmatroska v1.4.1

Видео
Идентификатор : 1
Формат : AVC
Формат/Информация : Advanced Video Codec
Профиль формата : High@L4.1
Параметр CABAC формата : Да
Параметр ReFrames формата : 8 кадров
Идентификатор кодека : V_MPEG4/ISO/AVC
Продолжительность : 1 ч. 48 м.
Битрейт : 3246 Кбит/сек
Ширина : 1024 пикселя
Высота : 576 пикселей
Соотношение сторон : 16:9
Режим частоты кадров : Постоянный
Частота кадров : 25,000 кадров/сек
Цветовое пространство : YUV
Субдискретизация насыщенности : 4:2:0
Битовая глубина : 8 бит
Тип развёртки : Прогрессивная
Бит/(Пиксели*Кадры) : 0.220
Размер потока : 2,41 Гбайт (75%)
Заголовок : Rip by 0ptimus
Библиотека кодирования : x264 core 133 r2334 a3ac64b
Настройки программы : cabac=1 / ref=8 / deblock=1:-3:-3 / analyse=0x3:0x113 / me=umh / subme=11 / psy=1 / psy_rd=1.00:0.20 / mixed_ref=1 / me_range=48 / chroma_me=1 / trellis=2 / 8x8dct=1 / cqm=0 / deadzone=21,11 / fast_pskip=0 / chroma_qp_offset=-3 / threads=4 / lookahead_threads=1 / sliced_threads=0 / nr=0 / decimate=0 / interlaced=0 / bluray_compat=0 / constrained_intra=0 / bframes=10 / b_pyramid=2 / b_adapt=2 / b_bias=0 / direct=3 / weightb=1 / open_gop=0 / weightp=2 / keyint=250 / keyint_min=25 / scenecut=40 / intra_refresh=0 / rc_lookahead=40 / rc=2pass / mbtree=0 / bitrate=3246 / ratetol=1.0 / qcomp=0.60 / qpmin=0 / qpmax=69 / qpstep=4 / cplxblur=20.0 / qblur=0.5 / vbv_maxrate=50000 / vbv_bufsize=50000 / nal_hrd=none / ip_ratio=1.40 / pb_ratio=1.30 / aq=1:1.00
Язык : English
Default : Да
Forced : Да

Аудио #1
Идентификатор : 2
Формат : AC-3
Формат/Информация : Audio Coding 3
Расширение режима : CM (complete main)
Параметр Endianness формата : Big
Идентификатор кодека : A_AC3
Продолжительность : 1 ч. 48 м.
Вид битрейта : Постоянный
Битрейт : 384 Кбит/сек
Каналы : 6 каналов
Расположение каналов : Front: L C R, Side: L R, LFE
Частота : 48,0 КГц
Битовая глубина : 16 бит
Метод сжатия : С потерями
Размер потока : 299 Мбайт (9%)
Заголовок : Многоголосый закадровый AC3 5.1 384 kbps
Язык : Russian
Default : Да
Forced : Да

Аудио #2
Идентификатор : 3
Формат : AC-3
Формат/Информация : Audio Coding 3
Расширение режима : CM (complete main)
Параметр Endianness формата : Big
Идентификатор кодека : A_AC3
Продолжительность : 1 ч. 48 м.
Вид битрейта : Постоянный
Битрейт : 192 Кбит/сек
Каналы : 2 канала
Расположение каналов : Front: L R
Частота : 48,0 КГц
Битовая глубина : 16 бит
Метод сжатия : С потерями
Размер потока : 150 Мбайт (5%)
Заголовок : Авторский [Юрий Живов] AC3 2.0 192 kbps
Язык : Russian
Default : Нет
Forced : Нет

Аудио #3
Идентификатор : 4
Формат : AC-3
Формат/Информация : Audio Coding 3
Расширение режима : CM (complete main)
Параметр Endianness формата : Big
Идентификатор кодека : A_AC3
Продолжительность : 1 ч. 48 м.
Вид битрейта : Постоянный
Битрейт : 384 Кбит/сек
Каналы : 6 каналов
Расположение каналов : Front: L C R, Side: L R, LFE
Частота : 48,0 КГц
Битовая глубина : 16 бит
Метод сжатия : С потерями
Размер потока : 299 Мбайт (9%)
Заголовок : AC3 5.1 384 kbps
Язык : English
Default : Нет
Forced : Нет

Текст #1
Идентификатор : 5
Формат : UTF-8
Идентификатор кодека : S_TEXT/UTF8
Идентификатор кодека/Информация : UTF-8 Plain Text
Язык : Russian
Default : Нет
Forced : Нет

Текст #2
Идентификатор : 6
Формат : UTF-8
Идентификатор кодека : S_TEXT/UTF8
Идентификатор кодека/Информация : UTF-8 Plain Text
Язык : English
Default : Нет
Forced : Нет

Меню
00:00:00.000 : :Chapter 01
00:02:13.110 : :Chapter 02
00:09:52.150 : :Chapter 03
00:19:43.000 : :Chapter 04
00:27:57.210 : :Chapter 05
00:39:42.110 : :Chapter 06
00:44:46.060 : :Chapter 07
00:54:30.239 : :Chapter 08
01:03:59.220 : :Chapter 09
01:16:02.130 : :Chapter 10
01:26:37.040 : :Chapter 11
01:39:39.130 : :Chapter 12
01:48:52.100 : :Chapter 13
Скриншоты



Кодек: h.264
Оригинальное название: Casualties of War
Видео: 3246 Кбит/с, 1024x576, 25.000 кадр/с

Если у вас возникли проблемы с закачкой Военные потери / Casualties of War (1989) HDTVRip-AVC от 0ptimus | P, A, перейдите по ссылке - там вы найдете решение своей проблемы.

Категория: Зарубежные фильмы

 

Военные потери / Casualties of War (1989) HDTVRip-AVC от 0ptimus | P, A скачать торрент бесплатно на пк без регистрации

 

Информация
Посетители, находящиеся в группе Гости, не могут оставлять комментарии к данной публикации.
 
 
Военные потери / Casualties of War (1989) HDTVRip-AVC от 0ptimus | P, A скачать торрент бесплатно на пк без регистрацииCopyright © 2019 .