Столик в углу / The Booth at the End [S01] (2011) HDTVRip 1080p от MediaClub | P скачать торрент бесплатно на пк без регистрации






Информация о фильме
Оригинальное название: The Booth at the End
Название: Столик в углу
Видео: MPEG-4 AVC, 11500 Кбит/с, 1920x1072, 25.000 кадр/с
Жанр: Драма, триллер
В ролях: Ксандер Беркли, Дженнифер Дель Розарио, Дженни Блонг, Мишель Данкер, Мэтт Борен, Сара Кларк, Джек Конли, Дэйтон Калли, Кейт Маберли, Ноэль Фишер, Эбби Миллер, Мэтт Нолан, Дэнни Нуччи, Брендан Чадд Томас, Кигэн Боос, Норма Майклс, Ромина Пениче, Тимоти Омандсон, Джэйк Ричардсон, Энтони Вон

Качество: HDTVRip 1080p
Перевод: Профессиональный (многоголосый закадровый)

Страна: США
Звук:
Русский (AC3, 2 ch, 384 Кбит/с) / Профессиональный (многоголосый закадровый)
Английский (AC3, 2 ch, 224 Кбит/с)

Студия: Hanged Man Pictures, Lifeboat Productions, Tornante Company, Vanishing Point Entertainment, Vuguru
Год выхода: 2011
О фильме:
Психологический триллер, рассказывающий о загадочном человеке, который сидит за столиком в углу закусочной и к которому люди обращаются за помощью в исполнении их желаний. Отчаявшийся отец больного ребенка, женщина, которая хочет стать красивой, художник, ищущий вдохновения… Человек может исполнить любое желание, но за определенную цену. Для того, чтобы получить то, что они хотят, посетители должны поступиться своими моральными ценностями и совершить самый неприемлимый для них поступок — взорвать бомбу, ограбить банк, убить… Но Человек никого ни к чему не принуждает, но каждый должен сделать свой выбор — как далеко он готов зайти, чтобы получить желаемое.



Режиссер: Джессика Ландоу, Адам Аркин
Кодек: x264
Релиз от: | AlexAndr92 ЗалилDelta3504 ОценкаНикто ещё не поставил оценку КатегорияЗарубежные фильмы Раздают1 Качают0 Сидер замечен14-07-2019 3:19:12 (58 минут назад) Добавлен20-09-2013 21:13:03 (71 месяц назад) Размер9.18 GB (9861265160 Bytes)Продолжительность: 5 x ~ 00:21:00
Семпл

MediaInfo
Формат : Matroska
Версия формата : Version 2
Размер файла : 1,86 Гбайт
Продолжительность : 22 м.
Общий поток : 12,1 Мбит/сек
Название фильма : Release for MediaClub by AlexAndr92
Дата кодирования : UTC 2013-09-20 14:42:36
Программа кодирования : mkvmerge v4.0.0 ('The Stars were mine') сборка от Jun 6 2010 16:18:42
Библиотека кодирования : libebml v1.0.0 + libmatroska v1.0.0

Видео
Идентификатор : 1
Формат : AVC
Формат/Информация : Advanced Video Codec
Профиль формата : High@L4.1
Параметр CABAC формата : Да
Параметр ReFrames формата : 4 кадра
Идентификатор кодека : V_MPEG4/ISO/AVC
Продолжительность : 22 м.
Битрейт : 11,5 Мбит/сек
Ширина : 1920 пикселей
Высота : 1072 пикселя
Соотношение сторон : 16:9
Режим частоты кадров : Постоянный
Частота кадров : 24,000 кадра/сек
Цветовое пространство : YUV
Субдискретизация насыщенности : 4:2:0
Битовая глубина : 8 бит
Тип развёртки : Прогрессивная
Бит/(Пиксели*Кадры) : 0.233
Размер потока : 1,73 Гбайт (93%)
Библиотека кодирования : x264 core 130 r2273 b3065e6
Настройки программы : cabac=1 / ref=4 / deblock=1:-1:-1 / analyse=0x3:0x133 / me=umh / subme=11 / psy=1 / psy_rd=1.00:0.15 / mixed_ref=1 / me_range=32 / chroma_me=1 / trellis=2 / 8x8dct=1 / cqm=0 / deadzone=21,11 / fast_pskip=0 / chroma_qp_offset=-3 / threads=6 / lookahead_threads=1 / sliced_threads=0 / nr=0 / decimate=0 / interlaced=0 / bluray_compat=0 / constrained_intra=0 / bframes=8 / b_pyramid=2 / b_adapt=2 / b_bias=0 / direct=3 / weightb=1 / open_gop=0 / weightp=2 / keyint=250 / keyint_min=24 / scenecut=40 / intra_refresh=0 / rc=2pass / mbtree=0 / bitrate=11500 / ratetol=1.0 / qcomp=0.60 / qpmin=0 / qpmax=69 / qpstep=4 / cplxblur=20.0 / qblur=0.5 / ip_ratio=1.40 / pb_ratio=1.30 / aq=1:1.00
Default : Нет
Forced : Нет

Аудио #1
Идентификатор : 2
Формат : AC-3
Формат/Информация : Audio Coding 3
Расширение режима : CM (complete main)
Параметр Endianness формата : Big
Идентификатор кодека : A_AC3
Продолжительность : 22 м.
Вид битрейта : Постоянный
Битрейт : 384 Кбит/сек
Каналы : 2 канала
Расположение каналов : Front: L R
Частота : 48,0 КГц
Битовая глубина : 16 бит
Метод сжатия : С потерями
Размер потока : 60,5 Мбайт (3%)
Язык : Russian
Default : Да
Forced : Нет

Аудио #2
Идентификатор : 3
Формат : AC-3
Формат/Информация : Audio Coding 3
Расширение режима : CM (complete main)
Параметр Endianness формата : Big
Идентификатор кодека : A_AC3
Продолжительность : 22 м.
Вид битрейта : Постоянный
Битрейт : 224 Кбит/сек
Каналы..
Каналы : 2 канала
Расположение каналов : Front: L R
Частота : 48,0 КГц
Битовая глубина : 16 бит
Метод сжатия : С потерями
Размер потока : 35,3 Мбайт (2%)
Язык : English
Default : Нет
Forced : Нет


Скриншоты

Если у вас возникли проблемы с закачкой Столик в углу / The Booth at the End [S01] (2011) HDTVRip 1080p от MediaClub | P, перейдите по ссылке - там вы найдете решение своей проблемы.

Категория: Зарубежные фильмы

 

Столик в углу / The Booth at the End [S01] (2011) HDTVRip 1080p от MediaClub | P скачать торрент бесплатно на пк без регистрации

 

Информация
Посетители, находящиеся в группе Гости, не могут оставлять комментарии к данной публикации.
 
 
Столик в углу / The Booth at the End [S01] (2011) HDTVRip 1080p от MediaClub | P скачать торрент бесплатно на пк без регистрацииCopyright © 2019 .