Внимание, черепаха! (1969) DVDRip-AVC от KORSAR скачать торрент бесплатно на пк без регистрации






Продолжительность: 01:21:17
Внимание, черепаха!
Год выпуска: 1969
Страна: СССР
Cубтитры: нет
Аудио: Русский, AC3, 2 ch, 192 Кбит/с
В ролях: Ролан Быков, Алеша Ершов, Андрей Самотолкин, Миша Мартиросян, Галя Буданова, Алексей Баталов, Лена Рябухина, Ирэн Азер, Марьяна Смирнова

shkara78 ОценкаНикто ещё не поставил оценку КатегорияНаши фильмы Раздают3 Качают1 Сидер замечен14-07-2019 5:19:12 (58 минут назад) Добавлен27-01-2019 1:11:18 (6 месяцев назад) Размер2.31 GB (2484988179 Bytes)Производство: Мосфильм
Перевод: Не требуется

Жанр: Комедия, приключения
Качество: DVDRip (AVC)
Навигация по главам: есть

Mediainfox264 [info]: frame I:761 Avg QP:18.09 size: 80292
x264 [info]: frame P:37610 Avg QP:19.98 size: 37299
x264 [info]: frame B:83576 Avg QP:22.32 size: 10803
x264 [info]: consecutive B-frames: 8.4% 6.2% 15.1% 33.0% 17.0% 17.9% 1.5% 0.6% 0.1% 0.1% 0.1% 0.2% 0.0%

General
Unique ID : 93385488608683175441773809807733383223 (0x4641641140EE565343CB2DB1AF4D6037)
Complete name : S:FILMSВнимание, черепаха! (1969) DVDRip-AVC - KORSAR.mkv
Format : Matroska
Format version : Version 4 / Version 2
File size : 2.31 GiB
Duration : 1 h 21 min
Overall bit rate : 4 076 kb/s
Movie name : Внимание, черепаха! (1969)_rip_by_Cthulhu
Encoded date : UTC 2019-01-26 21:19:49
Writing application : mkvmerge v28.2.0 ('The Awakening') 64-bit
Writing library : libebml v1.3.6 + libmatroska v1.4.9
Cover : Yes
Attachments : cover.jpg

Video
ID : 1
Format : AVC
Format/Info : Advanced Video Codec
Format profile : High@L4.1
Format settings, CABAC : Yes
Format settings, RefFrames : 15 frames
Codec ID : V_MPEG4/ISO/AVC
Duration : 1 h 21 min
Bit rate : 3 882 kb/s
Width : 720 pixels
Height : 556 pixels
Display aspect ratio : 1.381
Frame rate mode : Constant
Frame rate : 25.000 FPS
Color space : YUV
Chroma subsampling : 4:2:0
Bit depth : 8 bits
Scan type : Progressive
Bits/(Pixel*Frame) : 0.388
Stream size : 2.20 GiB (95%)
Writing library : x264 core 152 r2851kMod ba24899
Encoding settings : cabac=1 / ref=15 / deblock=1:-2:-1 / analyse=0x3:0x133 / me=umh / subme=11 / psy=1 / fade_compensate=0.00 / psy_rd=1.00:0.05 / mixed_ref=1 / me_range=48 / chroma_me=1 / trellis=2 / 8x8dct=1 / cqm=0 / deadzone=21,11 / fast_pskip=1 / chroma_qp_offset=-3 / threads=17 / lookahead_threads=4 / sliced_threads=0 / nr=0 / decimate=1 / interlaced=0 / bluray_compat=0 / constrained_intra=0 / bframes=12 / b_pyramid=2 / b_adapt=2 / b_bias=0 / direct=3 / weightb=1 / open_gop=0 / weightp=2 / keyint=250 / keyint_min=25 / scenecut=40 / intra_refresh=0 / rc=crf / mbtree=0 / crf=17.0000 / qcomp=0.65 / qpmin=0 / qpmax=39 / qpstep=4 / ip_ratio=1.40 / pb_ratio=1.30 / aq=2:0.90
Language : Russian
Default : Yes
Forced : No
Color range : Limited
Color primaries : BT.601 PAL
Transfer characteristics : BT.470 System B, BT.470 System G
Matrix coefficients : BT.601

Audio
ID : 2
Format : AC-3
Format/Info : Audio Coding 3
Mode extension : CM (complete main)
Format settings, Endianness : Big
Codec ID : A_AC3
Duration : 1 h 21 min
Bit rate mode : Constant
Bit rate : 192 kb/s
Channel(s) : 2 channels
Channel positions : Front: L R
Sampling rate : 48.0 kHz
Frame rate : 31.250 FPS (1536 spf)
Compression mode : Lossy
Stream size : 112 MiB (5%)
Language : Russian
Default : Yes
Forced : No

Menu
00:00:00.000 : en:Chapter 1
00:05:10.080 : en:Chapter 2
00:13:46.560 : en:Chapter 3
00:17:54.240 : en:Chapter 4
00:22:58.080 : en:Chapter 5
00:29:07.680 : en:Chapter 6
00:33:57.120 : en:Chapter 7
00:40:50.880 : en:Chapter 8
00:47:02.400 : en:Chapter 9
00:55:00.000 : en:Chapter 10
00:59:45.120 : en:Chapter 11
01:07:18.240 : en:Chapter 12
01:12:24.480 : en:Chapter 13
01:16:56.160 : en:Chapter 14Скриншоты

ЗалилРежиссер: Ролан Быков
О фильме:
Ответственный за живой уголок первоклассник Вова попал в больницу и тем самым положил начало диким экспериментам одноклассников над трудно уязвимой черепахой. Двое друзей, временно заменивших Вову, захотели проверить ее на прочность и грузоподъемность. А для этого они решили подложить черепаху под гусеницу танка. Но нашлись порядочные люди, друзья и старшеклассники, которые вместе с учительницей не допустили гибели безобидной черепашки.



Видео: MPEG-4 AVC, 720x556@768x556, 25 fps, 3882 Кбит/с

Если у вас возникли проблемы с закачкой Внимание, черепаха! (1969) DVDRip-AVC от KORSAR, перейдите по ссылке - там вы найдете решение своей проблемы.

Категория: Наши фильмы

 

Внимание, черепаха! (1969) DVDRip-AVC от KORSAR скачать торрент бесплатно на пк без регистрации

 

Информация
Посетители, находящиеся в группе Гости, не могут оставлять комментарии к данной публикации.
 
 
Внимание, черепаха! (1969) DVDRip-AVC от KORSAR скачать торрент бесплатно на пк без регистрацииCopyright © 2019 .