Муви 43 / Movie 43 (2013) BDRip 1080p | D, A скачать торрент бесплатно на пк без регистрации






Информация о фильме
Жанр: комедия
О фильме: 25 cуперзвезд первой величины — в комедийном проекте, который состоит из двух десятков мини-новелл с нескончаемым потоком шуток, гэгов, острот и пародий, о страстях и страстишках человеческих.



В ролях: Холли Берри, Джерард Батлер, Анна Фэрис, Хью Джекман, Джонни Ноксвил, Кристофер Минц-Плассе, Шонн Уильям Скотт, Эмма Стоун, Кейт Уинслет, Деннис Куэйд

Оригинальное название: Movie 43
Видео: 1920x1080 (16:9), 24 fps, 5395 kbps
Аудио #1: AC-3, 6 ch, 448 kbps (Дубляж)
Аудио #2: AC-3, 6 ch, 448 kbps (Одноголосый закадровый, Д.Пучков aka Goblin)
AlexKa Оценка7.6 из 10 (51 голосов, самая низкая оценка - 1, самая высокая - 10) КатегорияЗарубежные фильмы Раздают1 Качают0 Сидер замечен13-07-2019 22:19:13 (9 минут назад) Добавлен26-02-2013 14:25:29 (78 месяцев назад) Размер4.37 GB (4695205020 Bytes)Скачать: Перевод: Дублированный (лицензия) + Авторский (Гоблин)

сэмпл

Скриншоты

MIОбщее
Уникальный идентификатор : 244361465611135810822021093731913116361 (0xB7D64E6F68FEED5ABFC6AF16EE032AC9)
Полное имя : Movie.43.2013.BDRip.1080p.Rus.mkv
Формат : Matroska
Версия формата : Version 2
Размер файла : 4,37 Гбайт
Продолжительность : 1 ч. 39 м.
Общий поток : 6291 Кбит/сек
Название фильма : Муви 43 / Movie 43 (2013)
Дата кодирования : UTC 2013-02-26 09:51:40
Программа кодирования : mkvmerge v5.8.0 ('No Sleep / Pillow') built on Sep 2 2012 15:37:04
Библиотека кодирования : libebml v1.2.3 + libmatroska v1.3.0

Видео
Идентификатор : 1
Формат : AVC
Формат/Информация : Advanced Video Codec
Профиль формата : High@L4.1
Параметр CABAC формата : Да
Параметр ReFrames формата : 4 кадра
Идентификатор кодека : V_MPEG4/ISO/AVC
Продолжительность : 1 ч. 39 м.
Битрейт : 5395 Кбит/сек
Ширина : 1920 пикселей
Высота : 1080 пикселей
Соотношение сторон : 16:9
Частота кадров : 24,000 кадра/сек
Цветовое пространство : YUV
Субдискретизация насыщенности : 4:2:0
Битовая глубина : 8 бит
Тип развёртки : Прогрессивная
Бит/(Пиксели*Кадры) : 0.108
Размер потока : 3,66 Гбайт (84%)
Заголовок : Release by AlexKa
Библиотека кодирования : x264 core 129 r2245 bc13772
Настройки программы : cabac=1 / ref=4 / deblock=1:-3:-3 / analyse=0x3:0x133 / me=umh / subme=10 / psy=1 / psy_rd=1.10:0.00 / mixed_ref=1 / me_range=32 / chroma_me=1 / trellis=2 / 8x8dct=1 / cqm=0 / deadzone=21,11 / fast_pskip=0 / chroma_qp_offset=-2 / threads=12 / lookahead_threads=2 / sliced_threads=0 / nr=0 / decimate=0 / interlaced=0 / bluray_compat=0 / constrained_intra=0 / bframes=5 / b_pyramid=2 / b_adapt=2 / b_bias=0 / direct=3 / weightb=1 / open_gop=0 / weightp=2 / keyint=240 / keyint_min=24 / scenecut=40 / intra_refresh=0 / rc_lookahead=120 / rc=2pass / mbtree=1 / bitrate=5395 / ratetol=1.0 / qcomp=0.60 / qpmin=0 / qpmax=69 / qpstep=4 / cplxblur=20.0 / qblur=0.5 / ip_ratio=1.40 / aq=1:0.80
Язык : English

Аудио #1
Идентификатор : 2
Формат : AC-3
Формат/Информация : Audio Coding 3
Расширение режима : CM (complete main)
Идентификатор кодека : A_AC3
Продолжительность : 1 ч. 39 м.
Вид битрейта : Постоянный
Битрейт : 448 Кбит/сек
Каналы : 6 каналов
Расположение каналов : Front: L C R, Side: L R, LFE
Частота : 48,0 КГц
Битовая глубина : 16 бит
Метод сжатия : С потерями
Размер потока : 319 Мбайт (7%)
Заголовок : Дубляж
Язык : Russian

Аудио #2
Идентификатор : 3
Формат : AC-3
Формат/Информация : Audio Coding 3
Расширение режима : CM (complete main)
Идентификатор кодека : A_AC3
Продолжительность : 1 ч. 39 м.
Вид битрейта : Постоянный
Битрейт : 448 Кбит/сек
Каналы : 6 каналов
Расположение каналов : Front: L C R, Side: L R, LFE
Частота : 48,0 КГц
Битовая глубина : 16 бит
Метод сжатия : С потерями
Размер потока : 319 Мбайт (7%)
Заголовок : Одноголосый закадровый, Д.Пучков aka Goblin
Язык : Russian

Меню
00:00:00.000 : :Chapter 01
00:06:05.416 : :Chapter 02
00:14:02.416 : :Chapter 03
00:20:07.791 : :Chapter 04
00:29:12.125 : :Chapter 05
00:34:10.750 : :Chapter 06
00:44:12.000 : :Chapter 07
00:50:27.333 : :Chapter 08
00:57:01.833 : :Chapter 09
01:03:44.541 : :Chapter 10
01:11:02.583 : :Chapter 11
01:16:51.500 : :Chapter 12
01:22:03.000 : :Chapter 13
01:24:36.833 : :Chapter 14
01:31:12.833 : :Chapter 15
01:39:30.500 : :Chapter 16x264x264 [info]: frame I:1601 Avg QP:17.92 size:179117
x264 [info]: frame P:33540 Avg QP:21.45 size: 55193
x264 [info]: frame B:108152 Avg QP:23.67 size: 17448 ЗалилГод выхода: 2013
Качество: BDRip (источник: Blu-ray Disc)
Режиссер: Стивен Брилл, Питер Фаррелли, Боб Оденкирк
Кодек: x264
Продолжительность: 01:39:31
Выпущено: Relativity Media
Название: Муви 43

Если у вас возникли проблемы с закачкой Муви 43 / Movie 43 (2013) BDRip 1080p | D, A, перейдите по ссылке - там вы найдете решение своей проблемы.

Категория: Зарубежные фильмы

 

Муви 43 / Movie 43 (2013) BDRip 1080p | D, A скачать торрент бесплатно на пк без регистрации

 

Информация
Посетители, находящиеся в группе Гости, не могут оставлять комментарии к данной публикации.
 
 
Муви 43 / Movie 43 (2013) BDRip 1080p | D, A скачать торрент бесплатно на пк без регистрацииCopyright © 2019 .