Однажды в Америке / Once Upon a Time in America (1984) BDRip 720p от NoLimits-Team | Extended Cut скачать торрент бесплатно на пк без регистрации




Аудио 3: AC-3, 448 Кбит/сек, 6 канала(ов), 48,0 КГц - Оригинал / Английский
Жанр: Драма, криминал
Сюжет фильма
В бурные двадцатые годы, когда Америка веселилась под звуки джаза и каждый бродяга мечтал стать миллионером, в трущобах Нью-Йорка встретились несколько отчаянных парней. Убирая с дороги конкурентов, безжалостно карая предателей и нагло проворачивая хитроумные аферы, они стали королями преступного мира золотой эры «сухого закона». Они поклялись отдать жизнь друг за друга, зная, что самое главное для них — это дружба, долг и справедливость — не утопить в реках крови и бездонном океане денег. Спустя много лет судьба жестоко обошлась с легендарными гангстерами, заставив их исполнить свою клятву. Это случилось однажды в Америке…

Релиз Группа | Автор Рипа:

Скриншоты
MediaInfoFormat : Matroska
Format version : Version 4 / Version 2
File size : 9.39 GiB
Duration : 4h 11mn
Overall bit rate : 5 358 Kbps
Movie name : Однажды в Америке.(1984).BDRip.720p.[NoLimits-Team]
Encoded date : UTC 2013-06-02 04:03:50
Writing application : mkvmerge v6.0.0 ('Coming Up For Air') built on Jan 20 2013 09:52:00
Writing library : libebml v1.3.0 + libmatroska v1.4.0

Video
ID : 1
Format : AVC
Format/Info : Advanced Video Codec
Format profile : High@L4.1
Format settings, CABAC : Yes
Format settings, ReFrames : 9 frames
Codec ID : V_MPEG4/ISO/AVC
Duration : 4h 11mn
Bit rate : 4 012 Kbps
Width : 1 280 pixels
Height : 694 pixels
Display aspect ratio : 1.85:1
Frame rate mode : Constant
Frame rate : 24.000 fps
Color space : YUV
Chroma subsampling : 4:2:0
Bit depth : 8 bits
Scan type : Progressive
Bits/(Pixel*Frame) : 0.188
Stream size : 6.85 GiB (73%)
Title : Однажды в Америке.(1984).BDRip.720p.[NoLimits-Team]
Writing library : x264 core 133 r2334 a3ac64b
Encoding settings : cabac=1 / ref=9 / deblock=1:0:0 / analyse=0x3:0x133 / me=umh / subme=11 / psy=1 / psy_rd=1.00:0.00 / mixed_ref=1 / me_range=64 / chroma_me=1 / trellis=2 / 8x8dct=1 / cqm=0 / deadzone=21,11 / fast_pskip=0 / chroma_qp_offset=-2 / threads=9 / lookahead_threads=2 / sliced_threads=0 / nr=0 / decimate=1 / interlaced=0 / bluray_compat=0 / constrained_intra=0 / bframes=14 / b_pyramid=2 / b_adapt=2 / b_bias=0 / direct=3 / weightb=1 / open_gop=0 / weightp=2 / keyint=240 / keyint_min=24 / scenecut=40 / intra_refresh=0 / rc_lookahead=60 / rc=2pass / mbtree=1 / bitrate=4012 / ratetol=1.0 / qcomp=0.60 / qpmin=0 / qpmax=69 / qpstep=4 / cplxblur=20.0 / qblur=0.5 / ip_ratio=1.40 / aq=1:1.00
Language : English
Default : Yes
Forced : No

Audio #1
ID : 2
Format : AC-3
Format/Info : Audio Coding 3
Mode extension : CM (complete main)
Format settings, Endianness : Big
Codec ID : A_AC3
Duration : 4h 11mn
Bit rate mode : Constant
Bit rate : 448 Kbps
Channel(s) : 6 channels
Channel positions : Front: L C R, Side: L R, LFE
Sampling rate : 48.0 KHz
Bit depth : 16 bits
Compression mode : Lossy
Stream size : 804 MiB (8%)
Title : Ю.Сербин (Новая)
Language : Russian
Default : Yes
Forced : No

Audio #2
ID : 3
Format : AC-3
Format/Info : Audio Coding 3
Mode extension : CM (complete main)
Format settings, Endianness : Big
Codec ID : A_AC3
Duration : 4h 11mn
Bit rate mode : Constant
Bit rate : 448 Kbps
Channel(s) : 6 channels
Channel positions : Front: L C R, Side: L R, LFE
Sampling rate : 48.0 KHz
Bit depth : 16 bits
Compression mode : Lossy
Stream size : 804 MiB (8%)
Title : Ю.Сербин (Старая)
Language : Russian
Default : No
Forced : No

Audio #3
ID : 4
Format : AC-3
Format/Info : Audio Coding 3
Mode extension : CM (complete main)
Format settings, Endianness : Big
Codec ID : A_AC3
Duration : 4h 11mn
Bit rate mode : Constant
Bit rate : 448 Kbps
Channel(s) : 6 channels
Channel positions : Front: L C R, Side: L R, LFE
Sampling rate : 48.0 KHz
Bit depth : 16 bits
Compression mode : Lossy
Stream size : 804 MiB (8%)
Title : Английский
Language : English
Default : No
Forced : No

Text
ID : 5
Format : UTF-8
Codec ID : S_TEXT/UTF8
Codec ID/Info : UTF-8 Plain Text
Title : Русские (полные)
Language : Russian
Default : No
Forced : No

Menu
00:00:00.000 : :Chapter 01
00:03:28.916 : :Chapter 02
00:14:48.083 : :Chapter 03
00:24:36.000 : :Chapter 04
00:37:39.666 : :Chapter 05
00:45:50.166 : :Chapter 06
00:53:35.875 : :Chapter 07
01:04:46.874 : :Chapter 08
01:12:05.000 : :Chapter 09
01:22:31.583 : :Chapter 10
01:30:33.416 : :Chapter 11
01:38:18.875 : :Chapter 12
01:44:53.291 : :Chapter 13
01:52:24.875 : :Chapter 14
02:01:01.166 : :Chapter 15
02:08:37.625 : :Chapter 16
02:18:36.083 : :Chapter 17
02:27:45.875 : :Chapter 18
02:33:55.583 : :Chapter 19
02:42:24.666 : :Chapter 20
02:48:07.250 : :Chapter 21
02:55:59.333 : :Chapter 22
03:02:59.416 : :Chapter 23
03:08:52.416 : :Chapter 24
03:13:56.708 : :Chapter 25
03:22:56.208 : :Chapter 26
03:30:10.750 : :Chapter 27
03:40:32.625 : :Chapter 28
03:46:35.750 : :Chapter 29
03:54:51.333 : :Chapter 30
04:03:14.166 : :Chapter 31
04:06:44.750 : :Chapter 32
ЗалилАудио 2: AC-3, 448 Кбит/сек, 6 канала(ов), 48,0 КГц - Авторский одноголосый закадровый (Сербин) / Старая / Русский
Аудио 1: AC-3, 448 Кбит/сек, 6 канала(ов), 48,0 КГц - Авторский одноголосый закадровый (Сербин) / Новая / Русский (Установлен по умолчанию)
Субтитры: Русские | Полные
Продолжительность: 04:11:00
Оригинальное название: Once Upon a Time in America
Качество: BDRip 720p (исходник Blu-ray disc)
Видео: 1280x694, 4012 Кбит/сек, 24,000 кадр/сек, AVC, x264, High@L4.1, 1.85:1, 0.188 Бит/[Пиксели*Кадры], 2pass
Год выхода: 1984
Русское название: Однажды в Америке
В ролях: Роберт Де Ниро, Джеймс Вудс, Элизабет МакГоверн, Джо Пеши, Берт Янг, Тьюзди Уэлд, Трит Уильямс, Дэнни Айелло, Ричард Брайт, Джеймс Хейден
Файл
Перевод: Авторский одноголосый закадровый (Сербин) / Новая / Старая
Информация о фильме
Режиссер: Серджио Леоне
Выпущено: США, Италия
envy. Оценка10 из 10 (7 голосов, самая низкая оценка - 10, самая высокая - 10) КатегорияЗарубежные фильмы Раздают1 Качают1 Сидер замечен14-07-2019 7:19:12 (58 минут назад) Добавлен11-10-2017 0:05:20 (21 месяц назад) Размер9.39 GB (10086062663 Bytes)Чаптеры: Есть

Если у вас возникли проблемы с закачкой Однажды в Америке / Once Upon a Time in America (1984) BDRip 720p от NoLimits-Team | Extended Cut, перейдите по ссылке - там вы найдете решение своей проблемы.

Категория: Зарубежные фильмы

 

Однажды в Америке / Once Upon a Time in America (1984) BDRip 720p от NoLimits-Team | Extended Cut скачать торрент бесплатно на пк без регистрации

 

Информация
Посетители, находящиеся в группе Гости, не могут оставлять комментарии к данной публикации.
 
 
Однажды в Америке / Once Upon a Time in America (1984) BDRip 720p от NoLimits-Team | Extended Cut скачать торрент бесплатно на пк без регистрацииCopyright © 2019 .