Обход / Detour (2016) BDRip 720р от ExKinoRay | L скачать торрент бесплатно на пк без регистрации






Информация о фильме
Качество: BDRip 720p
Режиссер: Кристофер Смит
Подпишись на меня:


Оценка10 из 10 (1 голосов, самая низкая оценка - 10, самая высокая - 10) КатегорияЗарубежные фильмы Раздают1 Качают1 Сидер замечен14-07-2019 7:19:12 (58 минут назад) Добавлен29-04-2017 18:15:47 (27 месяцев назад) Размер4.98 GB (5345004796 Bytes)Автор релиза: Год выхода: 2016
Аудио #01: 48 kHz, AC3, 2.0, 192 Kbps | Paradox&Omskbird |Оригинальное название: Detour
Релиз от: О фильме:
Мать студента юридического факультета Харпера впала в кому после автомобильной аварии. Парень сильно переживает. А когда он встречает своего отчима с незнакомой девушкой на улице, то им начинает овладевать настоящее безумие. Решив отомстить за честь матери, он разрабатывает план убийства.




Субтитры: Английские (full, SDH)



MIGeneral
Unique ID : 186068458441617917946871458515965892883 (0x8BFB7B48F3071523B8FEDB91644AD913)
Complete name : F:VideoDetour.2016.BDRip.720p.ExKinoRay.mkv
Format : Matroska
Format version : Version 4 / Version 2
File size : 4.98 GiB
Duration : 1 h 37 min
Overall bit rate : 7 315 kb/s
Encoded date : UTC 2017-04-29 15:05:23
Writing application : mkvmerge v11.0.0 ('Alive') 64bit
Writing library : libebml v1.3.4 + libmatroska v1.4.5

Video
ID : 1
Format : AVC
Format/Info : Advanced Video Codec
Format profile : High@L4.1
Format settings, CABAC : Yes
Format settings, ReFrames : 12 frames
Codec ID : V_MPEG4/ISO/AVC
Duration : 1 h 37 min
Bit rate : 6 481 kb/s
Width : 1 280 pixels
Height : 536 pixels
Display aspect ratio : 2.40:1
Frame rate mode : Constant
Frame rate : 24.000 FPS
Color space : YUV
Chroma subsampling : 4:2:0
Bit depth : 8 bits
Scan type : Progressive
Bits/(Pixel*Frame) : 0.394
Stream size : 4.41 GiB (89%)
Writing library : x264 core 142 r2431+42 c69a006 tMod [8-bit@4:2:0 X86_64]
Encoding settings : cabac=1 / ref=12 / deblock=1:-3:-3 / analyse=0x3:0x113 / me=umh / subme=11 / psy=1 / fade_compensate=0.00 / psy_rd=1.05:0.00 / mixed_ref=1 / me_range=32 / chroma_me=1 / trellis=2 / 8x8dct=1 / cqm=0 / deadzone=21,11 / fast_pskip=0 / chroma_qp_offset=-2 / threads=12 / lookahead_threads=2 / sliced_threads=0 / nr=0 / decimate=0 / interlaced=0 / bluray_compat=0 / constrained_intra=0 / fgo=0 / bframes=8 / b_pyramid=2 / b_adapt=2 / b_bias=0 / direct=3 / weightb=1 / open_gop=0 / weightp=2 / keyint=250 / keyint_min=24 / scenecut=40 / intra_refresh=0 / rc_lookahead=60 / rc=crf / mbtree=0 / crf=14.7000 / qcomp=0.60 / qpmin=0:0:0 / qpmax=69:69:69 / qpstep=4 / vbv_maxrate=30000 / vbv_bufsize=38000 / crf_max=0.0 / nal_hrd=none / filler=0 / ip_ratio=1.30 / pb_ratio=1.20 / aq=3:0.80 / aq-sensitivity=10.00 / aq-factor=1.00:1.00:1.00 / aq2=0 / aq3=0 / zones=1032,3056,crf=11.7/6752,7808,crf=13.5/7833,12072,crf=11.7/12096,13464,crf=13.5/13992,20253,crf=11.7/20663,20927,crf=11.7/20930,20983,crf=12.7/21131,21640,crf=12.7/24574,24592,crf=12.7/24997,25237,crf=12.7/32485,32640,crf=12.7/39715,39787,crf=12.7/40305,40425,crf=12.7/41482,41609,crf=12.7/53252,53300,crf=12.7/69448,70216,crf=12.7/71257,71427,crf=12.7/71451,74595,crf=13.5/77355,77523,crf=13.5/86376,87120,crf=12.7/89155,91075,crf=11.7/92011,92227,crf=13.5/92467,92731,crf=12.7/94843,95587,crf=13.5/101683,102763,crf=13.5/110781,110974,crf=11.7/111262,112486,crf=13.5/112606,113687,crf=12.7/113711,114143,crf=12.7/117367,117583,crf=12.7/123895,124495,crf=13.5
Language : English
Default : Yes
Forced : No
Color range : Limited
Color primaries : BT.709
Transfer characteristics : BT.709
Matrix coefficients : BT.709

Audio #1
ID : 2
Format : AC-3
Format/Info : Audio Coding 3
Format settings, Endianness : Big
Codec ID : A_AC3
Duration : 1 h 37 min
Bit rate mode : Constant
Bit rate : 192 kb/s
Channel(s) : 2 channels
Channel positions : Front: L R
Sampling rate : 48.0 kHz
Frame rate : 31.250 FPS (1536 spf)
Bit depth : 16 bits
Compression mode : Lossy
Stream size : 134 MiB (3%)
Title : MVO
Language : Russian
Service kind : Complete Main
Default : Yes
Forced : No

Audio #2
ID : 3
Format : AC-3
Format/Info : Audio Coding 3
Format settings, Endianness : Big
Codec ID : A_AC3
Duration : 1 h 37 min
Bit rate mode : Constant
Bit rate : 640 kb/s
Channel(s) : 6 channels
Channel positions : Front: L C R, Side: L R, LFE
Sampling rate : 48.0 kHz
Frame rate : 31.250 FPS (1536 spf)
Bit depth : 16 bits
Compression mode : Lossy
Stream size : 446 MiB (9%)
Title : Original
Language : English
Service kind : Complete Main
Default : No
Forced : No

Text #1
ID : 4
Format : UTF-8
Codec ID : S_TEXT/UTF8
Codec ID/Info : UTF-8 Plain Text
Duration : 1 h 30 min
Bit rate : 58 b/s
Count of elements : 1219
Stream size : 38.8 KiB (0%)
Title : Full
Language : English
Default : No
Forced : No

Text #2
ID : 5
Format : UTF-8
Codec ID : S_TEXT/UTF8
Codec ID/Info : UTF-8 Plain Text
Duration : 1 h 33 min
Bit rate : 60 b/s
Count of elements : 1317
Stream size : 41.3 KiB (0%)
Title : SDH
Language : English
Default : No
Forced : No

Menu
00:00:00.000 : en:00:00:00.000
00:08:21.333 : en:00:08:21.333
00:17:34.333 : en:00:17:34.333
00:25:19.708 : en:00:25:19.708
00:36:20.792 : en:00:36:20.792
00:45:40.583 : en:00:45:40.583
00:51:45.458 : en:00:51:45.458
00:59:31.125 : en:00:59:31.125
01:08:09.208 : en:01:08:09.208
01:14:28.000 : en:01:14:28.000
01:30:33.000 : en:01:30:33.000
01:33:07.375 : en:01:33:07.375

Страна: Великобритания, ЮАР
Перевод: Любительский многоголосый (закадровый) | Paradox&Omskbird Records

Продолжительность: 01:37:25
Студия: Bankside Films, Dan Films, Head Gear Films
ENG|
RUS|
Название: Обход
Жанр: Триллер
Видео: MPEG-4 AVC, 1280x536, 6481 Kbit/s, 23.976 fps
Звук:
В ролях: Тай Шеридан, Эмори Коэн, Бел Паули, Стивен Мойер, Джон Линч, Гбенга Акиннагбе, Сибонгиле Мламбо, Дженна Сарас, Джаред Абрахамсон, Ник Борэйни

Аудио #02: 48 kHz, AC3, 5.1, 640 kbps | Оригинал |

Если у вас возникли проблемы с закачкой Обход / Detour (2016) BDRip 720р от ExKinoRay | L, перейдите по ссылке - там вы найдете решение своей проблемы.

Категория: Зарубежные фильмы

 

Обход / Detour (2016) BDRip 720р от ExKinoRay | L скачать торрент бесплатно на пк без регистрации

 

Информация
Посетители, находящиеся в группе Гости, не могут оставлять комментарии к данной публикации.
 
 
Обход / Detour (2016) BDRip 720р от ExKinoRay | L скачать торрент бесплатно на пк без регистрацииCopyright © 2019 .