Украсть Кэнди / Stealing Candy (2003) DVDRip | P скачать торрент бесплатно на пк без регистрации






Информация о фильме
Страна: США
Описание: Тюремный срок пошел прожженному аферисту Фреду Дауду на пользу: теперь он знает беспроигрышный способ разбогатеть. Вместе с отвязным психопатом Брэдом и уникальным суперхакером Уолтом он решает похитить знаменитую юную актрису Кэнди, но не ради выкупа.

Бандиты намерены сделать из соблазнительной красотки скандальную порнозвезду Интернета, предоставив к ней доступ каждому, кто готов заплатить. Их план прост и гениален, но вскоре страх, алчность и безудержная страсть вносят в него неожиданные коррективы…



В ролях: Дэниэл Болдуин, Кулио, Алекс МакАртур, Джения Лэно, Джастин Лестер, Пол Провенза, Уайли М. Пикетт, Кристофер Райделл, Эдриэнн Мелцер, Джули Ст. Клер


Режиссер: Марк Л. Лестер
Название: Украсть Кэнди
Жанр: триллер
Аудио MP3, 2 канала, 256 Кбит/сек, 48,0 КГц

Скриншоты:
MediaInfo:Общее
Полное имя : E:FilmУкрасть_красотку.avi
Формат : AVI
Формат/Информация : Audio Video Interleave
Профиль формата : OpenDML
Размер файла : 1,32 Гбайт
Продолжительность : 1 ч. 23 м.
Общий поток : 2267 Кбит/сек
Программа кодирования : Lavf51.12.1

Видео
Идентификатор : 0
Формат : MPEG-4 Visual
Профиль формата : Simple@L1
Параметр BVOP формата : Нет
Параметр QPel формата : Нет
Параметр GMC формата : Без точки перехода
Параметр матрицы формата : Default (H.263)
Идентификатор кодека : DX50
Идентификатор кодека/Подсказка : DivX 5
Продолжительность : 1 ч. 23 м.
Битрейт : 1996 Кбит/сек
Ширина : 720 пикселей
Высота : 480 пикселей
Соотношение сторон : 3:2
Частота кадров : 25,000 кадров/сек
Цветовое пространство : YUV
Субдискретизация насыщенности : 4:2:0
Битовая глубина : 8 бит
Тип развёртки : Прогрессивная
Метод сжатия : С потерями
Бит/(Пиксели*Кадры) : 0.231
Размер потока : 1,17 Гбайт (88%)
Библиотека кодирования : Lavc51.40.4

Аудио
Идентификатор : 1
Формат : MPEG Audio
Версия формата : Version 1
Профиль формата : Layer 3
Режим : Joint stereo
Расширение режима : MS Stereo
Идентификатор кодека : 55
Идентификатор кодека/Подсказка : MP3
Продолжительность : 1 ч. 23 м.
Вид битрейта : Постоянный
Битрейт : 256 Кбит/сек
Каналы : 2 канала
Частота : 48,0 КГц
Метод сжатия : С потерями
Размер потока : 153 Мбайт (11%)
Выравнивание : Соединение по промежуткам
Продолжительность промежутка : 24 мс. (0,60 видеокадр)

ЗалилПеревод: Профессиональный (многоголосый, закадровый)


Видео: 720x480, (3:2), DivX 5, 1996 Кбит/сек, 25,000 кадров/сек
Формат: AVI
Год выхода: 2003
Оригинальное название: Stealing Candy
Продолжительность: 01:23:38
Gepg ОценкаНикто ещё не поставил оценку КатегорияЗарубежные фильмы Раздают0 Качают0 Сидер замечен13-07-2019 20:19:12 (13 часа назад) Добавлен29-10-2015 16:52:32 (45 месяцев назад) Размер1.32 GB (1422397606 Bytes)Качество: DVDRip

Если у вас возникли проблемы с закачкой Украсть Кэнди / Stealing Candy (2003) DVDRip | P, перейдите по ссылке - там вы найдете решение своей проблемы.

Категория: Зарубежные фильмы

 

Украсть Кэнди / Stealing Candy (2003) DVDRip | P скачать торрент бесплатно на пк без регистрации

 

Информация
Посетители, находящиеся в группе Гости, не могут оставлять комментарии к данной публикации.
 
 
Украсть Кэнди / Stealing Candy (2003) DVDRip | P скачать торрент бесплатно на пк без регистрацииCopyright © 2019 .