Пережить Рождество / Surviving Christmas (2004) HDRip от New-Team скачать торрент бесплатно на пк без регистрации




Аудио: 48 kHz, MPEG Layer 3, 2 ch, ~128.00 kbps avg
Жанр: мелодрама, комедия
Доп. информация: Фильм снимался без полноценного сценария, и на площадке постоянно кипели споры о том, как должен выглядеть тот или другой фрагмент. Поэтому большая часть картины — актерские импровизации.
Рабочим названием ленты было «The Twelve Days of Christmas» (12 Рождественских дней).



Режиссер: Майк Митчелл

Перевод: Профессиональный (дублированный)
Качество: HDRip [contineNt ОценкаНикто ещё не поставил оценку КатегорияЗарубежные фильмы Раздают1 Качают0 Сидер замечен10-07-2019 21:19:13 (4 дня назад) Добавлен19-11-2013 19:25:44 (69 месяцев назад) Размер744.11 MB (780259328 Bytes)Видео кодек: XviD
Пережить Рождество / Surviving Christmas

Cубтитры: нет
Продолжительность: 01:30:54
Видео: 656x368 (1.78:1), 23.976 fps, XviD build 50 ~1007 kbps avg, 0.17 bit/pixel
Раздача от:
Скриншоты
MID:Мои рипыSurviving.Christmas.2004.HDRip.744mb.dexter_lex.avi
General
Complete name : D:Мои рипыSurviving.Christmas.2004.HDRip.744mb.dexter_lex.avi
Format : AVI
Format/Info : Audio Video Interleave
File size : 744 MiB
Duration : 1h 30mn
Overall bit rate : 1 144 Kbps
Writing application : VirtualDubMod 1.5.10.3 | www.virtualdub-fr.org || (build 2550/release)
Writing library : VirtualDubMod build 2550/release
Video #0
ID : 0
Format : MPEG-4 Visual
Format profile : Advanced Simple@L5
Format settings, BVOP : 1
Format settings, QPel : No
Format settings, GMC : No warppoints
Format settings, Matrix : Custom
Codec ID : XVID
Codec ID/Hint : XviD
Duration : 1h 30mn
Bit rate : 1 007 Kbps
Width : 656 pixels
Height : 368 pixels
Display aspect ratio : 16:9
Frame rate : 23.976 fps
Color space : YUV
Chroma subsampling : 4:2:0
Bit depth : 8 bits
Scan type : Progressive
Compression mode : Lossy
Bits/(Pixel*Frame) : 0.174
Stream size : 655 MiB (88%)
Writing library : XviD 1.2.1 (UTC 2008-12-04)
Audio #1
ID : 1
Format : MPEG Audio
Format version : Version 1
Format profile : Layer 3
Codec ID : 55
Codec ID/Hint : MP3
Duration : 1h 30mn
Bit rate mode : Constant
Bit rate : 128 Kbps
Channel(s) : 2 channels
Sampling rate : 48.0 KHz
Compression mode : Lossy
Stream size : 83.0 MiB (11%)
Alignment : Aligned on interleaves
Interleave, duration : 42 ms (1.00 video frame)
Interleave, preload duration : 504 ms
Writing library : LAME3.99r
Encoding settings : -m s -V 4 -q 2 -lowpass 17 -b 128

ЗалилСтрана: США
Описание: Опостылевшая рутинная жизнь богача Дрю Лэтама приводит его на Рождество в пригородный дом своего детства. И даже тот факт, что дом заселён теперь другими людьми, не может испортить Дрю настроение. За солидное вознаграждение он предлагает семейке Валко на время стать его роднёй, и сам мечтает отметить праздник в их кругу. Вот только деньги кружат голову далеко не всем его новым родственникам, да и сами Валко, кажется, представляют собой редкую семейку психопатов…

Год выпуска: 2004
В ролях: Бен Аффлек, Джеймс Гандольфини, Кристина Эпплгейт, Кэтрин О’Хара, Джош Цуккерман, Билл Мэйси, Дженнифер Моррисон, Удо Кир, Дэвид Селби, Стефани Фэраси

Формат: AVI
BDRip 720p]
Аудио кодек: MP3
Оригинальная аудиодорожка: нет

Если у вас возникли проблемы с закачкой Пережить Рождество / Surviving Christmas (2004) HDRip от New-Team, перейдите по ссылке - там вы найдете решение своей проблемы.

Категория: Зарубежные фильмы

 

Пережить Рождество / Surviving Christmas (2004) HDRip от New-Team скачать торрент бесплатно на пк без регистрации

 

Информация
Посетители, находящиеся в группе Гости, не могут оставлять комментарии к данной публикации.
 
 
Пережить Рождество / Surviving Christmas (2004) HDRip от New-Team скачать торрент бесплатно на пк без регистрацииCopyright © 2019 .