Налетчики / Marauders (2016) BDRip-AVC от ExKinoRay | iTunes скачать торрент бесплатно на пк без регистрации








Информация о фильме
Оригинальное название: Marauders
Продолжительность: 01:47:36
Видео: AVC, 1024x428 (2.40:1), 1685 kbps, 23.976 fps, 0,160 bpp
В ролях: Брюс Уиллис, Кристофер Мелони, Дэйв Батиста, Адриан Гренье, Лидия Халл, Тайлер Джон Олсон, Кристофер Роб Бауэн, Ричи Чэнс, Дэнни А. Абекейзер


Аудио1: 48 kHz, AC3, 5.1, 384 Kbps | RUS |
Страна: Канада
Жанр: Боевик
Перевод: Дублированный | iTunes
Субтитры: Русские, английские


Студия: 4th Wall Entertainment, Emmett/Furla Films, Grindstone Entertainment Group, Lionsgate Home Entertainment
Качество: BDRip-AVC
Enigma2010 ОценкаНикто ещё не поставил оценку КатегорияЗарубежные фильмы Раздают0 Качают0 Сидер замечен13-07-2019 22:19:13 (14 часа назад) Добавлен20-04-2017 7:12:16 (27 месяцев назад) Размер1.88 GB (2021874606 Bytes)Релиз от:

Название: Налетчики
Автор релиза: ЗалилРежиссер: Стивен С. Миллер
Аудио2: 48 kHz, AC3, 5.1, 448 Kbps | ENG |


MI
General
Unique ID : 202642704242042799655329621832745597995 (0x987390B1AD4EFB929A22CDFE533FBC2B)
Complete name : D:Marauders.2016.D.BDRip.AVC.ExKinoRay.mkv
Format : Matroska
Format version : Version 2
File size : 1.88 GiB
Duration : 1 h 47 min
Overall bit rate : 2 517 kb/s
Movie name : Marauders 2016 from ExKinoRay
Encoded date : UTC 2017-04-20 03:29:05
Writing application : mkvmerge v5.8.0 ('No Sleep / Pillow') built on Sep 2 2012 15:37:04
Writing library : libebml v1.2.3 + libmatroska v1.3.0

Video
ID : 1
Format : AVC
Format/Info : Advanced Video Codec
Format profile : High@L4.1
Format settings, CABAC : Yes
Format settings, ReFrames : 12 frames
Codec ID : V_MPEG4/ISO/AVC
Duration : 1 h 47 min
Bit rate : 1 685 kb/s
Width : 1 024 pixels
Height : 428 pixels
Display aspect ratio : 2.40:1
Frame rate mode : Constant
Frame rate : 23.976 (24000/1001) FPS
Original frame rate : 23.976 (23976/1000) FPS
Color space : YUV
Chroma subsampling : 4:2:0
Bit depth : 8 bits
Scan type : Progressive
Bits/(Pixel*Frame) : 0.160
Stream size : 1.22 GiB (65%)
Title : Enigma
Writing library : x264 core 144 r2525 40bb568
Encoding settings : cabac=1 / ref=12 / deblock=1:-2:-2 / analyse=0x3:0x113 / me=umh / subme=10 / psy=1 / psy_rd=1.05:0.05 / mixed_ref=1 / me_range=32 / chroma_me=1 / trellis=2 / 8x8dct=1 / cqm=0 / deadzone=21,11 / fast_pskip=0 / chroma_qp_offset=-3 / threads=12 / lookahead_threads=2 / sliced_threads=0 / nr=0 / decimate=0 / interlaced=0 / bluray_compat=0 / constrained_intra=0 / bframes=9 / b_pyramid=2 / b_adapt=2 / b_bias=0 / direct=3 / weightb=1 / open_gop=0 / weightp=2 / keyint=240 / keyint_min=23 / scenecut=40 / intra_refresh=0 / rc_lookahead=40 / rc=2pass / mbtree=0 / bitrate=1685 / ratetol=1.0 / qcomp=0.60 / qpmin=0 / qpmax=51 / qpstep=4 / cplxblur=20.0 / qblur=0.5 / vbv_maxrate=50000 / vbv_bufsize=62500 / nal_hrd=none / filler=0 / ip_ratio=1.40 / pb_ratio=1.30 / aq=1:1.00
Default : Yes
Forced : No
Color range : Limited
Color primaries : BT.709
Transfer characteristics : BT.709
Matrix coefficients : BT.709

Audio #1
ID : 2
Format : AC-3
Format/Info : Audio Coding 3
Mode extension : CM (complete main)
Format settings, Endianness : Big
Codec ID : A_AC3
Duration : 1 h 47 min
Bit rate mode : Constant
Bit rate : 384 kb/s
Channel(s) : 6 channels
Channel positions : Front: L C R, Side: L R, LFE
Sampling rate : 48.0 kHz
Frame rate : 31.250 FPS (1536 spf)
Compression mode : Lossy
Stream size : 294 MiB (15%)
Title : Dub (iTunes)
Language : Russian
Default : Yes
Forced : No

Audio #2
ID : 3
Format : AC-3
Format/Info : Audio Coding 3
Mode extension : CM (complete main)
Format settings, Endianness : Big
Codec ID : A_AC3
Duration : 1 h 47 min
Bit rate mode : Constant
Bit rate : 448 kb/s
Channel(s) : 6 channels
Channel positions : Front: L C R, Side: L R, LFE
Sampling rate : 48.0 kHz
Frame rate : 31.250 FPS (1536 spf)
Compression mode : Lossy
Stream size : 343 MiB (18%)
Language : English
Default : No
Forced : No

Text #1
ID : 4
Format : UTF-8
Codec ID : S_TEXT/UTF8
Codec ID/Info : UTF-8 Plain Text
Title : Full
Language : Russian
Default : No
Forced : No

Text #2
ID : 5
Format : UTF-8
Codec ID : S_TEXT/UTF8
Codec ID/Info : UTF-8 Plain Text
Title : Full
Language : English
Default : No
Forced : No

Text #3
ID : 6
Format : UTF-8
Codec ID : S_TEXT/UTF8
Codec ID/Info : UTF-8 Plain Text
Title : SDH
Language : English
Default : No
Forced : No

Menu
00:00:00.000 : en:00:00:00.000
00:05:19.402 : en:00:05:19.402
00:11:57.717 : en:00:11:57.717
00:17:46.107 : en:00:17:46.107
00:24:42.648 : en:00:24:42.648
00:30:33.874 : en:00:30:33.874
00:39:07.679 : en:00:39:07.679
00:46:14.981 : en:00:46:14.981
00:51:49.356 : en:00:51:49.356
00:55:58.272 : en:00:55:58.272
01:02:08.016 : en:01:02:08.016
01:09:21.699 : en:01:09:21.699
01:16:38.594 : en:01:16:38.594
01:22:48.839 : en:01:22:48.839
01:28:22.172 : en:01:28:22.172
01:34:08.351 : en:01:34:08.351




Скриншоты



Год выпуска: 2016
Описание: История об агенте ФБР, который нападает на след преступников, ограбивших банк и отдавших все украденные деньги на благотворительные нужды. Чем дальше продвигается расследование, тем больше главный герой убеждается в том, что у владельца банка имеются собственные секреты.





Если у вас возникли проблемы с закачкой Налетчики / Marauders (2016) BDRip-AVC от ExKinoRay | iTunes, перейдите по ссылке - там вы найдете решение своей проблемы.

Категория: Зарубежные фильмы

 

Налетчики / Marauders (2016) BDRip-AVC от ExKinoRay | iTunes скачать торрент бесплатно на пк без регистрации

 

Информация
Посетители, находящиеся в группе Гости, не могут оставлять комментарии к данной публикации.
 
 
Налетчики / Marauders (2016) BDRip-AVC от ExKinoRay | iTunes скачать торрент бесплатно на пк без регистрацииCopyright © 2019 .