Чрево / Womb (2010) HDRip от Killbrain and Scarabey | Лицензия скачать торрент бесплатно на пк без регистрации




Раздача от:

Кillbrain Оценка10 из 10 (2 голосов, самая низкая оценка - 10, самая высокая - 10) КатегорияЗарубежные фильмы Раздают3 Качают0 Сидер замечен14-07-2019 12:19:12 (58 минут назад) Добавлен07-01-2014 12:57:04 (67 месяцев назад) Размер1.46 GB (1564661760 Bytes)В ролях: Ева Грин, Мэтт Смит, Лесли Мэнвилл, Питер Уайт, Иштван Ленар, Ханна Мюррэй, Руби О. Фи, Тристан Кристофер, Джесси Хоффманн, Наталия Тена


Недалекое будущее. Семилетние Ребекка и Томас живут в небольшом прибрежном городке и дружат с самого детства. После окончания школы семнадцатилетняя Ребекка возвращается в родной городок и у нее завязывается бурный роман с подросшим Томасом.
Спустя несколько месяцев Томас погибает в нелепой автокатастрофе. Отчаявшаяся Ребекка не находит себе места до тех пор, пока ей не приходит в голову безумная идея. В недалеком будущем вполне обыденным явлением стало клонирование людей, пусть общество и не до конца принимает это научное изобретение. Ребекка решает дать новую жизнь своему потерянному возлюбленному...
В доме на берегу моря повзрослевшая Ребекка растит обаятельного сына Томаса, который уверен, что его отец погиб в автокатастрофе. Ребекка никогда не говорит вслух о клонировании. Пока не появляется кое-кто из прошлой жизни и тайное не становится явным...

Продолжительность: 01:51:53

Оригинальная аудиодорожка: нет
Видео: 720x304 (2.37:1), 24 fps, XviD build 73 ~1663 kbps avg, 0.32 bit/pixel
Режиссер: Бенедек Флигауф / Benedek Fliegauf
Аудио: AC3 / 2.0 ch / 192 kbps / Русский MVO, R5
Русские субтитры: нет
Жанр: фантастика, драма, мелодрама
Перевод: русский профессиональный (многоголосый, закадровый) [Лицензия, R5]
Субтитры: нет

Страна: Германия, Венгрия, Франция
Тип релиза: HDRip (исходник: Womb.2010.BDRip1080p(Killbrain)_[scarabey.org].mkv)
Год выпуска: 2010
АНОНСЫ МОИХ РАЗДАЧ!





Дополнительно о фильме:
Знаете ли вы, что...
Технические детали съёмки:
Производство, студия дубляжа, прокат:
MediaInfo:Общее
Полное имя : F:Скачка торрентWomb.2010.HDRip(Killbrain)_[scarabey.org].avi
Формат : AVI
Формат/Информация : Audio Video Interleave
Размер файла : 1,46 Гбайт
Продолжительность : 1 ч. 51 м.
Общий поток : 1865 Кбит/сек
Название фильма : Womb
Режиссёр : Killbrain
Жанр : Drama
Программа кодирования : VirtualDubModRus 1.5.10.2 (build 2540/release)
Формат оригинала/Имя : Movie
Правообладатель : scarabey.org

Видео
Идентификатор : 0
Формат : MPEG-4 Visual
Профиль формата : Advanced Simple@L5
Параметр BVOP формата : 2
Параметр QPel формата : Нет
Параметр GMC формата : Без точки перехода
Параметр матрицы формата : Выборочная
Идентификатор кодека : XVID
Идентификатор кодека/Подсказка : XviD
Продолжительность : 1 ч. 51 м.
Битрейт : 1663 Кбит/сек
Ширина : 720 пикселей
Высота : 304 пикселя
Соотношение сторон : 2,35:1
Частота кадров : 24,000 кадра/сек
Цветовое пространство : YUV
Субдискретизация насыщенности : 4:2:0
Битовая глубина : 8 бит
Тип развёртки : Прогрессивная
Метод сжатия : С потерями
Бит/(Пиксели*Кадры) : 0.317
Размер потока : 1,30 Гбайт (89%)
Библиотека кодирования : XviD 73

Аудио
Идентификатор : 1
Формат : AC-3
Формат/Информация : Audio Coding 3
Расширение режима : CM (complete main)
Параметр Endianness формата : Big
Идентификатор кодека : 2000
Продолжительность : 1 ч. 51 м.
Вид битрейта : Постоянный
Битрейт : 192 Кбит/сек
Каналы : 2 канала
Расположение каналов : Front: L R
Частота : 48,0 КГц
Битовая глубина : 16 бит
Метод сжатия : С потерями
Размер потока : 154 Мбайт (10%)
Выравнивание : Разделение по промежуткам
Продолжительность промежутка : 42 мс. (1,00 видеокадр)
Время предзагрузки промежутка : 500 мс.
Скриншоты:
Немного отзывов с Кинопоиска.Ру:

ЗалилЧрево / Womb
«What are the consequences of giving birth to your dead boyfriend?»



Студия: Arte France Cinéma, Asap Films, Boje Buck Produktion GmbH, Inforg Stúdió, Razor Film Produktion GmbH, ZDF/Arte

Если у вас возникли проблемы с закачкой Чрево / Womb (2010) HDRip от Killbrain and Scarabey | Лицензия, перейдите по ссылке - там вы найдете решение своей проблемы.

Категория: Зарубежные фильмы

 

Чрево / Womb (2010) HDRip от Killbrain and Scarabey | Лицензия скачать торрент бесплатно на пк без регистрации

 

Информация
Посетители, находящиеся в группе Гости, не могут оставлять комментарии к данной публикации.
 
 
Чрево / Womb (2010) HDRip от Killbrain and Scarabey | Лицензия скачать торрент бесплатно на пк без регистрацииCopyright © 2019 .