Смерть в сети / The Den (2013) WEB-DLRip От Deadmauvlad | D скачать торрент бесплатно на пк без регистрации





Смерть в сети / The Den

Аудио кодек: MP3
DJ_V.K_TV Оценка9.5 из 10 (2 голосов, самая низкая оценка - 9, самая высокая - 10) КатегорияЗарубежные фильмы Раздают0 Качают0 Сидер замечен15-02-2019 13:19:06 (5 месяцев назад) Добавлен09-05-2014 16:48:26 (63 месяца назад) Размер738.94 MB (774838272 Bytes)Год выпуска: 2014
Качество: WEB-DLRip
Формат: AVI
Перевод:Профессиональный Дублированное [лицензия]


«А что если вы увидите...»

Аудио: 48 kHz, MPEG Layer 3, 2 ch, ~128.00 kbps avg

MIОбщее
Полное имя : D:Рипы выкладка [Deadmauvlad]Рипы готовыеThe.Den.2013.WEB-DLRip.Deadmauvlad.D.Rus.avi
Формат : AVI
Формат/Информация : Audio Video Interleave
Размер файла : 739 Мбайт
Продолжительность : 1 ч. 16 м.
Общий поток : 1346 Кбит/сек
Название фильма : The.Den.2013.WEB-DLRip.Deadmauvlad.D.Rus
Режиссёр : Deadmauvlad
Жанр : Ужасы, Триллер , Драма
Программа кодирования : VirtualDubMod 1.5.10.3 | www.virtualdub-fr.org || (build 2550/release)
Формат оригинала/Имя : Фильм
Правообладатель : Goldenshara
Примечание : Лицензия

Видео
Идентификатор : 0
Формат : MPEG-4 Visual
Профиль формата : Advanced Simple@L5
Параметр BVOP формата : 1
Параметр QPel формата : Нет
Параметр GMC формата : Без точки перехода
Параметр матрицы формата : Выборочная
Идентификатор кодека : XVID
Идентификатор кодека/Подсказка : XviD
Продолжительность : 1 ч. 16 м.
Битрейт : 1208 Кбит/сек
Ширина : 624 пикселя
Высота : 336 пикселей
Соотношение сторон : 1,85:1
Частота кадров : 23,976 кадра/сек
Цветовое пространство : YUV
Субдискретизация насыщенности : 4:2:0
Битовая глубина : 8 бит
Тип развёртки : Прогрессивная
Метод сжатия : С потерями
Бит/(Пиксели*Кадры) : 0.240
Размер потока : 664 Мбайт (90%)
Библиотека кодирования : XviD 73

Аудио
Идентификатор : 1
Формат : MPEG Audio
Версия формата : Version 1
Профиль формата : Layer 3
Идентификатор кодека : 55
Идентификатор кодека/Подсказка : MP3
Продолжительность : 1 ч. 16 м.
Вид битрейта : Постоянный
Битрейт : 128 Кбит/сек
Каналы : 2 канала
Частота : 48,0 КГц
Метод сжатия : С потерями
Размер потока : 70,3 Мбайт (10%)
Выравнивание : Соединение по промежуткам
Продолжительность промежутка : 42 мс. (1,00 видеокадр)
Время предзагрузки промежутка : 504 мс.
Библиотека кодирования : LAME3.99r
Настройки программы : -m s -V 4 -q 2 -lowpass 17 -b 128

Скриншоты ЗалилПродолжительность: ~ 01:12:13
Описание: Молодая женщина изучает привычки пользователей чата с использованием веб-камеры и невольно становится свидетелем жестокого убийства…



СЭМПЛ СКАЧАТЬ


В ролях: Мелани Папалиа, Дэвид Шлачтенхауфен, Мэтт Риди, Адам Шапиро, Брайан Белл, Рон Боттитта, Кирк Бовилл, Тристиан Чейз, Сайда Аррика Экулона, Гарретт Форнандер
Жанр: драма, криминал
Режиссёр: Захари Донохью

Страна: США
Видео кодек: XvID
Видео: 624x336 (1.86:1), 23.976 fps, XviD build 73 ~1200 kbps avg, 0.24 bit/pixel

Если у вас возникли проблемы с закачкой Смерть в сети / The Den (2013) WEB-DLRip От Deadmauvlad | D, перейдите по ссылке - там вы найдете решение своей проблемы.

Категория: Зарубежные фильмы

 

Смерть в сети / The Den (2013) WEB-DLRip От Deadmauvlad | D скачать торрент бесплатно на пк без регистрации

 

Информация
Посетители, находящиеся в группе Гости, не могут оставлять комментарии к данной публикации.
 
 
Смерть в сети / The Den (2013) WEB-DLRip От Deadmauvlad | D скачать торрент бесплатно на пк без регистрацииCopyright © 2019 .