Ветреная река / Wind River (2017) BDRip 1080p от qqss44 & MegaPeer | Лицензия скачать торрент бесплатно на пк без регистрации





Релиз от:

Скриншоты





МИ
Общее
Уникальный идентификатор : 238047128260403003009963588903253406799 (0xB31635915B314D1E983635692151744F)
Полное имя : H:Wind.River.(2017).BDRip-1080p.MegaPeer.(qqss44).mkv
Формат : Matroska
Версия формата : Version 2
Размер файла : 7,74 Гбайт
Продолжительность : 1 ч. 46 м.
Общий поток : 10,4 Мбит/сек
Название фильма : Wind.River.(2017).BDRip.1080p.(qqss44)
Дата кодирования : UTC 2018-03-20 14:31:27
Программа кодирования : mkvmerge v5.8.0 ('No Sleep / Pillow') built on Sep 2 2012 15:37:04
Библиотека кодирования : libebml v1.2.3 + libmatroska v1.3.0

Видео
Идентификатор : 1
Формат : AVC
Формат/Информация : Advanced Video Codec
Профиль формата : High@L4.1
Параметр CABAC формата : Да
Параметр ReFrames формата : 5 кадров
Идентификатор кодека : V_MPEG4/ISO/AVC
Продолжительность : 1 ч. 46 м.
Битрейт : 9111 Кбит/сек
Ширина : 1920 пикселей
Высота : 804 пикселя
Соотношение сторон : 2,40:1
Режим частоты кадров : Постоянный
Частота кадров : 23,976 (24000/1001) кадра/сек
Цветовое пространство : YUV
Субдискретизация насыщенности : 4:2:0
Битовая глубина : 8 бит
Тип развёртки : Прогрессивная
Бит/(Пиксели*Кадры) : 0.246
Размер потока : 6,63 Гбайт (86%)
Библиотека кодирования : x264 core 152 r2851kMod ba24899
Настройки программы : cabac=1 / ref=5 / deblock=1:-1:-1 / analyse=0x3:0x113 / me=umh / subme=11 / psy=1 / fade_compensate=0.00 / psy_rd=1.00:0.00 / mixed_ref=1 / me_range=32 / chroma_me=1 / trellis=2 / 8x8dct=1 / cqm=0 / deadzone=21,11 / fast_pskip=0 / chroma_qp_offset=-2 / threads=12 / lookahead_threads=2 / sliced_threads=0 / nr=0 / decimate=0 / interlaced=0 / bluray_compat=0 / constrained_intra=0 / bframes=9 / b_pyramid=2 / b_adapt=2 / b_bias=0 / direct=3 / weightb=1 / open_gop=0 / weightp=2 / keyint=240 / keyint_min=23 / scenecut=40 / intra_refresh=0 / rc_lookahead=40 / rc=2pass / mbtree=0 / bitrate=9111 / ratetol=1.0 / qcomp=0.65 / qpmin=0 / qpmax=69 / qpstep=4 / cplxblur=20.0 / qblur=0.5 / vbv_maxrate=50000 / vbv_bufsize=62500 / nal_hrd=none / filler=0 / ip_ratio=1.40 / pb_ratio=1.30 / aq=3:0.80
Язык : English
Default : Да
Forced : Нет

Аудио #1
Идентификатор : 2
Формат : AC-3
Формат/Информация : Audio Coding 3
Расширение режима : CM (complete main)
Параметр Endianness формата : Big
Идентификатор кодека : A_AC3
Продолжительность : 1 ч. 46 м.
Вид битрейта : Постоянный
Битрейт : 640 Кбит/сек
Каналы : 6 каналов
Расположение каналов : Front: L C R, Side: L R, LFE
Частота : 48,0 КГц
Частота кадров : 31,250 кадров/сек (1536 spf)
Метод сжатия : С потерями
Размер потока : 489 Мбайт (6%)
Язык : Russian
Default : Да
Forced : Нет

Аудио #2
Идентификатор : 3
Формат : AC-3
Формат/Информация : Audio Coding 3
Расширение режима : CM (complete main)
Параметр Endianness формата : Big
Идентификатор кодека : A_AC3
Продолжительность : 1 ч. 46 м.
Вид битрейта : Постоянный
Битрейт : 640 Кбит/сек
Каналы : 6 каналов
Расположение каналов : Front: L C R, Side: L R, LFE
Частота : 48,0 КГц
Частота кадров : 31,250 кадров/сек (1536 spf)
Метод сжатия : С потерями
Размер потока : 489 Мбайт (6%)
Язык : English
Default : Нет
Forced : Нет

Текст #1
Идентификатор : 4
Формат : UTF-8
Идентификатор кодека : S_TEXT/UTF8
Идентификатор кодека/Информация : UTF-8 Plain Text
Заголовок : FORCED
Язык : Russian
Default : Да
Forced : Нет

Текст #2
Идентификатор : 5
Формат : UTF-8
Идентификатор кодека : S_TEXT/UTF8
Идентификатор кодека/Информация : UTF-8 Plain Text
Заголовок : FULL
Язык : Russian
Default : Нет
Forced : Нет

Текст #3
Идентификатор : 6
Формат : UTF-8
Идентификатор кодека : S_TEXT/UTF8
Идентификатор кодека/Информация : UTF-8 Plain Text
Заголовок : FULL
Язык : English
Default : Нет
Forced : Нет

Меню
00:00:00.000 : en:00:00:00.000
00:06:01.695 : en:00:06:01.695
00:10:42.433 : en:00:10:42.433
00:14:55.394 : en:00:14:55.394
00:19:18.741 : en:00:19:18.741
00:25:52.342 : en:00:25:52.342
00:32:02.921 : en:00:32:02.921
00:37:13.481 : en:00:37:13.481
00:43:34.529 : en:00:43:34.529
00:52:17.259 : en:00:52:17.259
01:00:22.536 : en:01:00:22.536
01:07:09.484 : en:01:07:09.484
01:10:57.920 : en:01:10:57.920
01:18:39.590 : en:01:18:39.590
01:23:46.104 : en:01:23:46.104
01:31:00.538 : en:01:31:00.538
01:36:46.592 : en:01:36:46.592
01:39:41.642 : en:01:39:41.642



ЗалилВ ролях: Джереми Реннер, Элизабет Олсен, Джон Бернтал, Келси Чоу, Джулия Джонс, Тео Брионес, Апесанахкват, Грэм Грин, Танту Кардинал, Эрик Ланж, Джил Бирмингем

О фильме:
В пустыне на территории индейской резервации «Ветреная река» егерь Кори Ламберт находит изувеченное тело молодой девушки. Опытный охотник с трагическим прошлым, он берется помочь в расследовании этого дела агенту ФБР Джейн Бэннер, которая оказывается в мире, полном загадок и насилия. Но смогут ли они противостоять зловещим силам этих мест, где сама природа пропитана горечью и жаждой мщения?..



Информация о фильме
Студия: Acacia Filmed Entertainment, Film 44, Ingenious Media, Savvy Media Holdings, Star Thrower Entertainment
Анонсы 1080p от qqss44

qqss44 Оценка9.2 из 10 (13 голосов, самая низкая оценка - 4, самая высокая - 10) КатегорияЗарубежные фильмы Раздают29 Качают2 Сидер замечен14-07-2019 10:19:12 (56 минут назад) Добавлен20-03-2018 18:36:15 (16 месяцев назад) Размер7.74 GB (8308688037 Bytes)Год выпуска: 2017
Перевод: Дублированный |Жанр: Боевик, триллер, криминал, детектив
Формат: MKV, BDRip 1080p
Aудио#2: [ENG] AC3 | 48 KHz | 5.1 (Front: L С R Side: L R) + LFE | ~640 kbps
Режиссер: Тейлор Шеридан
Страна: Великобритания, Канада, США
Оригинальное название: Wind River
Лицензия

Видео: MPEG-4 AVC, 9111 Кбит/с, 1920x804
Название: Ветреная река
Субтитры: русские (форсированные и полные), английские (полные)
Продолжительность: 01:46:47
Aудио#1: [RUS] AC3 | 48 KHz | 5.1 (Front: L С R Side: L R) + LFE | ~640 kbps

Если у вас возникли проблемы с закачкой Ветреная река / Wind River (2017) BDRip 1080p от qqss44 & MegaPeer | Лицензия, перейдите по ссылке - там вы найдете решение своей проблемы.

Категория: Зарубежные фильмы

 

Ветреная река / Wind River (2017) BDRip 1080p от qqss44 & MegaPeer | Лицензия скачать торрент бесплатно на пк без регистрации

 

Информация
Посетители, находящиеся в группе Гости, не могут оставлять комментарии к данной публикации.
 
 
Ветреная река / Wind River (2017) BDRip 1080p от qqss44 & MegaPeer | Лицензия скачать торрент бесплатно на пк без регистрацииCopyright © 2019 .