Пигмалион (1957) DVDRip от New-Team скачать торрент бесплатно на пк без регистрации





AVPStudio ОценкаНикто ещё не поставил оценку КатегорияНаши фильмы Раздают1 Качают0 Сидер замечен14-07-2019 18:19:13 (58 минут назад) Добавлен03-04-2017 13:27:21 (28 месяцев назад) Размер1.46 GB (1565655040 Bytes)Раздача от:
MediaInfo
Общее
Полное имя : Pigmalion.1957.DVDRip_[New-team]_by_AVP_Studio.avi
Формат : AVI
Формат/Информация : Audio Video Interleave
Размер файла : 1,46 Гбайт
Продолжительность : 1 ч. 30 м.
Общий поток : 2305 Кбит/сек
Программа кодирования : VirtualDubMod 1.5.10.3 | www.virtualdub-fr.org || (build 2550/release)
Библиотека кодирования : VirtualDubMod build 2550/release

Видео
Идентификатор : 0
Формат : MPEG-4 Visual
Профиль формата : Advanced Simple@L5
Параметр BVOP формата : 1
Параметр QPel формата : Нет
Параметр GMC формата : Без точки перехода
Параметр матрицы формата : Выборочная
Идентификатор кодека : XVID
Идентификатор кодека/Подсказка : XviD
Продолжительность : 1 ч. 30 м.
Битрейт : 2103 Кбит/сек
Ширина : 688 пикселей
Высота : 512 пикселей
Соотношение сторон : 4:3
Частота кадров : 25,000 кадров/сек
Цветовое пространство : YUV
Субдискретизация насыщенности : 4:2:0
Битовая глубина : 8 бит
Тип развёртки : Прогрессивная
Метод сжатия : С потерями
Бит/(Пиксели*Кадры) : 0.239
Размер потока : 1,33 Гбайт (91%)
Библиотека кодирования : XviD 73

Аудио
Идентификатор : 1
Формат : AC-3
Формат/Информация : Audio Coding 3
Параметр Endianness формата : Big
Идентификатор кодека : 2000
Продолжительность : 1 ч. 30 м.
Вид битрейта : Постоянный
Битрейт : 192 Кбит/сек
Каналы : 2 канала
Расположение каналов : Front: L R
Частота : 48,0 КГц
Частота кадров : 31,250 кадров/сек (1536 spf)
Битовая глубина : 16 бит
Метод сжатия : С потерями
Размер потока : 124 Мбайт (8%)
Выравнивание : Разделение по промежуткам
Продолжительность промежутка : 40 мс. (1,00 видеокадр)
Время предзагрузки промежутка : 500 мс

Скриншоты

ЗалилОб актёрах подробней

Формат видео: AVI

Режиссер: Сергей Алексеев

Перевод:Источник:Не требуется
Описание:
Телефильм. Экранизация спектакля Малого театра по пьесе Бернарда Шоу "Пигмалион".
Профессор фонетики мистер Хиггинс (Михаил Царев) решил доказать, что сможет благодаря своим знаниям и педагогическому искусству превратить Элизу (Констанция Роек) - простую уличную цветочницу с ужасающей речью и манерами, в светскую даму и представить ее гостям как герцогиню.
Мать профессора играет великолепная, умная актриса - одна из трех великих старух Малого театра` - Евдокия Дмитриевна Турчанинова. Абсолютная англичанка, аристократка, которую мог написать только Шоу и никто другой. Действие третьего акта пьесы происходит в доме миссис Хиггинс. Наконец, Хиггинс решил устроить ученице первый экзамен: привез Элизу к своей матери в ее приемный день. У Турчаниновой в этой сцене не так много слов, но она умеет говорить и без слов одними глазами, и зритель совершенно безошибочно знает, о чем она в данный момент думает. Эта партитура мысли была разработана актрисой безукоризненно. Мисси Хиггинс выше всех остальных гостей: она первая и единственная в холодном и искусственном мире встала на защиту человека. Не случайно в минуту отчаяния Элиза придет к ней, к ироничной старой леди с добрыми и мудрыми глазами. Эта тончайшая актриса сумела передать парадоксальную манеру письма великого насмешника Бернарда Шоу.



Видео: 688x512 (4:3), 25 fps, XviD ~ 2103 kbps avg, 0.239 bit/pixel
Производство: Мосфильм

Cубтитры: нет
Аудио: 48 kHz, Dolby Digital AC3 2.0, 192 kbps

В ролях:
Михаил Царёв, Евдокия Турчанинова, Евгений Велихов, Констанция Роек, Владимир Владиславский, Нина Григоровская, Наталья Стоянова, Екатерина Еланская, Пров Садовский...
Оригинальная аудиодорожка: русский

DVDRip
Год выпуска: 1957
Продолжительность: 01:30:34

Качество видео:Жанр: комедия
Страна: СССР
DVD5 R5

Если у вас возникли проблемы с закачкой Пигмалион (1957) DVDRip от New-Team, перейдите по ссылке - там вы найдете решение своей проблемы.

Категория: Наши фильмы

 

Пигмалион (1957) DVDRip от New-Team скачать торрент бесплатно на пк без регистрации

 

Информация
Посетители, находящиеся в группе Гости, не могут оставлять комментарии к данной публикации.
 
 
Пигмалион (1957) DVDRip от New-Team скачать торрент бесплатно на пк без регистрацииCopyright © 2019 .