Нация Z / Z Nation [S05] (2018) WEBRip | OMSKBIRD скачать торрент бесплатно на пк без регистрации






Информация о фильме
Релиз от: OmskBird ЗалилРежиссер: Джон Хайамс, Карл Шэфер
Продолжительность: ~00:44:00 серия
Семпл

MediaInfo:
General
Complete name : G:Z.Nation.S05.WEBRip.OmskBirdZ.Nation.S05E01.WEBRip.OmskBird.avi
Format : AVI
Format/Info : Audio Video Interleave
File size : 623 MiB
Duration : 43 min 46 s
Overall bit rate : 1 990 kb/s
Writing application : Lavf57.71.100

Video
ID : 0
Format : MPEG-4 Visual
Format profile : Simple@L5
Format settings : BVOP1
Format settings, BVOP : 1
Format settings, QPel : No
Format settings, GMC : No warppoints
Format settings, Matrix : Default (MPEG)
Codec ID : XVID
Codec ID/Hint : XviD
Duration : 43 min 46 s
Bit rate : 1 787 kb/s
Width : 720 pixels
Height : 320 pixels
Display aspect ratio : 2.222
Frame rate : 23.976 (24000/1001) FPS
Color space : YUV
Chroma subsampling : 4:2:0
Bit depth : 8 bits
Scan type : Progressive
Compression mode : Lossy
Bits/(Pixel*Frame) : 0.323
Stream size : 560 MiB (90%)
Title : Alias Data Handler
Writing library : XviD 67

Audio
ID : 1
Format : AC-3
Format/Info : Audio Coding 3
Codec ID : 2000
Duration : 43 min 46 s
Bit rate mode : Constant
Bit rate : 192 kb/s
Channel(s) : 2 channels
Channel positions : Front: L R
Sampling rate : 48.0 kHz
Frame rate : 31.250 FPS (1536 SPF)
Bit depth : 16 bits
Compression mode : Lossy
Stream size : 60.1 MiB (10%)
Alignment : Aligned on interleaves
Interleave, duration : 32 ms (0.77 video frame)
Service kind : Complete Main

Скриншоты



Страна: США
Жанр: Ужасы, фантастика, зомби, апокалипсис
Студия:The Asylum, Go2 Digital Media
Кодек: XviD
skyn s61 ОценкаНикто ещё не поставил оценку КатегорияЗарубежные сериалы Раздают1 Качают0 Сидер замечен14-07-2019 20:19:16 (58 минут назад) Добавлен30-12-2018 13:36:47 (7 месяцев назад) Размер7.88 GB (8466135552 Bytes)Видео: 720x320, 23.976 fps, ~1786 kbps, 0.32 bit/pixel
Звук:
Год выхода:2018
Оригинальное название: Z Nation
Качество: WEBRip
Аудио rus:AC3, 48 kHz, 2 ch, 192 Kbps | OmskBird
В ролях: ХэКит Аллан, Том Эверетт Скотт, Келлита Смит, Расселл Ходжкинсон, Нат Занг, Анастасия Баранова, ДиДжей Куаллс, Пасэй Пау, Мэтт Седеньо, Майкл Уэлш, Эмилио Ривера, Хэролд Перрино, Лиза Коронадо, Дональд Коррен, Сара Коутс, Джина Гершон, Розали Миллер, Фил Эндрейд, Марк Карр, Ким Литтл, Кит Кокс, Аарон Трэйнор, Алекс Терзиефф и др.
Субтитры: отсутствуют
Реклама: присутствует

О фильме:
Описание: Эпидемия вируса зомби накрыла весь мир. В подвалах секретного комплекса проводят испытания вакцины, заражая поочередно трех заключенных. Выживает только один. Алвин Бернард Мерфи, та ещё зараза в прямом и переносном смысле. Он становится единственной надеждой человечества на создания вакцины против зомби. Группе выживших предстоит переправить его в другой секретный комплекс, где беднягу разберут на анализы и вытянут из него тайны антизомбина. Мерфи постепенно обнаруживает, что вакцина в его теле мутировала, сделав его своего рода зомби-мессией. Дальнейшие приключения безумной команды и их подопечного разворачиваются на фоне зомби-апокалипсиса, зунами, зорнадо, зомби-травки, которую явно покуривали сценаристы. Сериал изящно и с легкостью пародирует штампы зомби-муви, а так же наполнен совершенно прекрасными отсылками (чего стоят хотя бы доктор Куриан, главзлодей серии игр "Дом мертвых", Джордж Мартин-зомби, дописывающий свою бессмертную сагу и библейский сюжет с рождением священного зомби-дитятки и пришествием волхвов-зомби). Рекомендуется фанатам зомби-муви, людям с чувством юмора и стиля.



Перевод: Любительский (многоголосый закадровый) | OMSKBIRD records

Название: Нация Z

Если у вас возникли проблемы с закачкой Нация Z / Z Nation [S05] (2018) WEBRip | OMSKBIRD, перейдите по ссылке - там вы найдете решение своей проблемы.

Категория: Зарубежные сериалы

 

Нация Z / Z Nation [S05] (2018) WEBRip | OMSKBIRD скачать торрент бесплатно на пк без регистрации

 

Информация
Посетители, находящиеся в группе Гости, не могут оставлять комментарии к данной публикации.
 
 
Нация Z / Z Nation [S05] (2018) WEBRip | OMSKBIRD скачать торрент бесплатно на пк без регистрацииCopyright © 2019 .